1 сезон

3 сезон

iTunes

1

iTunes

DUB Netflix

iTunes

13

1 сезон

RePack

30

Deluxe

pack

Легкие деньги

ВАЖНО

ИГРА 18+

pack

RePack

MK11

RePack

jed

RePack

fifa19

RePack

RDR2

RePack

NEED FOR SPEED™ PAYBACK

4 сезон

9 сезон

Бесстыжие 9 сезон

Все сериалы

все сериалы на PB.wtf

RePack

FAR CRY 5

Anonymous, доброй ночи, мы не успеваем до 1 числа собрать деньги на оплату серверов, помогите нам пожалуйста в это трудное время. В качестве благодарности мы отключим Вам всю рекламу на сайте (укажите свой ник в строку Ваше имя)!

×
  
Magnet ссылка

Взлом / Home Invasion (Дэвид Теннант) [2016 г., триллер, WEB-DLRip, Профессиональный многоголосый закадровый "iTunes"] piratbit.org

Взлом через торрент piratbit.org

Размер: 1.47 GB | Добавлен: 5 лет 4 мес. назад | Торрент скачан:1679 раз
Скачать  

02-02-2016 18:19 Взлом Скачать торрент  

Взлом / Home Invasion
Год выпуска: 2016
Страна: США / ARO Entertainment, Odyssey Media, TAJJ Media
Жанр: триллер
Продолжительность: 01:28:31
Перевод: Профессиональный многоголосый закадровый (iTunes)

Режиссер: Дэвид Теннант

IMDB 8.50 (11)


В ролях: Скотт Эдкинс, Наташа Хенстридж, Лиам Дикинсон, Кира Загорски, Майкл Роджерс, Кристиан Тессьер, Бренда Кричлоу, Лиэнн Лэпп, Джоанна Ньюмарк, Гари Чок

Описание: Ужас приходит к героям в месте, которое они считали самым безопасным. В своем загородном доме состоятельная дама со своим приемным сыном становятся жертвой нападения трех изощренных и беспощадных воров. Единственная их надежда на спасение — это оператор службы домашней сигнализации на другом конце телефона. Сможет ли он стать глазами пленников собственного дома и помочь им выбраться из кошмара наяву?

Качество: WEB-DLRip
Формат: AVI
Видео кодек: XviD
Аудио кодек: AC3
Видео: MPEG4, XviD, 720x400 (16:9), 23.976 fps, 1 979 Kbps (0.287 bit/pixel)
Аудио: AC-3, 48.0 KHz, 6 ch, 384 Kbps, CBR

Общее
Полное имя : F:\кино\Взлом.2016.WEB-DLRip.avi
Формат : AVI
Формат/Информация : Audio Video Interleave
Размер файла : 1,47 Гбайт
Продолжительность : 1 ч. 28 м.
Общий поток : 2372 Кбит/сек
Программа кодирования : VirtualDubMod 1.5.10.3 | www.virtualdub-fr.org || (build 2550/release)
Библиотека кодирования : VirtualDubMod build 2550/release

Видео
Идентификатор : 0
Формат : MPEG-4 Visual
Профиль формата : Advanced Simple@L5
Параметр BVOP формата : 2
Параметр QPel формата : Нет
Параметр GMC формата : Без точки перехода
Параметр матрицы формата : Default (H.263)
Идентификатор кодека : XVID
Идентификатор кодека/Подсказка : XviD
Продолжительность : 1 ч. 28 м.
Битрейт : 1979 Кбит/сек
Ширина : 720 пикселей
Высота : 400 пикселей
Соотношение сторон : 16:9
Частота кадров : 23,976 (23976/1000) кадра/сек
Цветовое пространство : YUV
Субдискретизация насыщенности : 4:2:0
Битовая глубина : 8 бит
Тип развёртки : Прогрессивная
Метод сжатия : С потерями
Бит/(Пиксели*Кадры) : 0.287
Размер потока : 1,22 Гбайт (83%)
Библиотека кодирования : XviD 1.2.1 (UTC 2008-12-04)

Аудио
Идентификатор : 1
Формат : AC-3
Формат/Информация : Audio Coding 3
Расширение режима : CM (complete main)
Параметр Endianness формата : Big
Идентификатор кодека : 2000
Продолжительность : 1 ч. 28 м.
Вид битрейта : Постоянный
Битрейт : 384 Кбит/сек
Каналы : 6 каналов
Расположение каналов : Front: L C R, Side: L R, LFE
Частота : 48,0 КГц
Частота кадров : 31,250 кадров/сек (1536 spf)
Метод сжатия : С потерями
Размер потока : 243 Мбайт (16%)
Выравнивание : Разделение по промежуткам
Продолжительность промежутка : 42 мс. (1,00 видеокадр)
Время предзагрузки промежутка : 500 мс.

piratbit.org



Скачать Взлом через торрент https://pic.kartinco.top/images/11/ewfht.jpg Скачать фильм Взлом через торрент бесплантно в хорошем качестве Описание: Ужас приходит к героям в месте, которое они считали самым безопасным. В своем загородном доме состоятельная дама со своим ... 8.7 10 50
Торрент: Зарегистрирован [2016-02-02 18:19] · скачан: 1 679 раз
Статус: √ проверено
Размер: 1.47 GB
Как cкачать? Как скачать Взлом через торрент | UTorrent

% Раздел Тема Автор DL S | L
R.G. Resident & PiratVoice - Фильмы, Видео [ 1.46 GB ] Взлом / Home Invasion [2016 WEB-DLRip-AVC многоголосый R.G.Resident schultz Скачать
1 | 0

28-11-2019 20:33  

Отключить всю рекламу на сайте

03-02-2016 12:42 Взлом Скачать торрент  

Спасибо большое за кинчик)piratbit.org



03-02-2016 14:02 Взлом Скачать торрент  

Хороший фильм. советую любителям судной ночи)piratbit.org



26-02-2016 17:24 Взлом Скачать торрент  

судная ночь шикарный фильм тогда и этот заценим!piratbit.org



28-02-2016 16:17 Взлом Скачать торрент  

Ну не знаю по мне так унылое го... piratbit.org



    Дорогой пользователь! Огромная просьба, поблагодарите релизера, оцените раздачу и оставьте свои комментарий, если Вы скачали Взлом через торрент бесплатно! Внесите свою лепту в развитие PiratBit!
    Комментировать посты могут только пользователи прошедшие не сложную регистрацию
    Показать сообщения:    

    Взлом через торрент
    Скачать бесплатно Взлом
    Взлом скачать торрент
    Взлом смотреть онлайн
    Cкачать фильм Взлом бесплатно
    Взлом скачать торрент в хорошем качестве
    Взлом смотреть онлайн бесплатно в хорошем качестве


    Вы не можете начинать темы
    Вы не можете отвечать на сообщения
    Вы не можете редактировать свои сообщения
    Вы не можете удалять свои сообщения
    Вы не можете голосовать в опросах
    Вы не можете прикреплять файлы к сообщениям
    Вы можете скачивать файлы