1 сезон

3 сезон

iTunes

1

iTunes

DUB Netflix

iTunes

13

1 сезон

RePack

30

Deluxe

pack

Легкие деньги

ВАЖНО

ИГРА 18+

pack

RePack

MK11

RePack

jed

RePack

fifa19

RePack

RDR2

RePack

NEED FOR SPEED™ PAYBACK

4 сезон

9 сезон

Бесстыжие 9 сезон

Все сериалы

все сериалы на PB.wtf

RePack

FAR CRY 5

Anonymous, добрый день, мы не успеваем до 1 числа собрать деньги на оплату серверов, помогите нам пожалуйста в это трудное время. В качестве благодарности мы отключим Вам всю рекламу на сайте (укажите свой ник в строку Ваше имя)!

×
  
Magnet ссылка

Морпехи 3: В осаде / Jarhead 3: The Siege (Уильям Кауфман / William Kaufman) [2016, Боевик, драма, военный, BDRip-AVC от potroks] DUB Лицензия piratbit.org

Морпехи 3: В осаде через торрент piratbit.org

Размер: 2.18 GB | Добавлен: 5 лет 4 мес. назад | Торрент скачан:706 раз
Скачать  

05-02-2016 02:48 Морпехи 3: В осаде Скачать торрент  

Морпехи 3: В осаде / Jarhead 3: The Siege
Год выпуска: 2016
Страна: США / Universal 1440 Entertainment
Жанр: боевик, драма, военный
Продолжительность: 01:28:59
Перевод: Дубляж [BD CEE]
Субтитры: русские (полные + форс.), английские (Full + SDH)
Навигация по главам: есть
Режиссер: Уильям Кауфман / William Kaufman
В ролях:

Чарли Вебер (Evan Albright), Скотт Эдкинс (Gunny Raines), Том Эйнсли (Hansen), Эрик Валдез (Lopez), Данте Баско (Blake), Саша Джексон (Olivia Winston), Деннис Хейсбёрт (Major Lincoln), Стефен Хоган (Ambassador Dan Cahill), Джо Корригалл (Stamper), Адриан Ховард (Khaled), Чарли де Мелу (Jamal), Лил Ромео (Sunshine)
Описание: Отряду морских пехотинцев, чья миссия - защита посольства США в одной из ближневосточных стран, приходится отражать внезапную атаку противника.

Качество: BDRip-AVC
Формат: MKV
Видео кодек: AVC
Аудио кодек: AC3
Видео: 1172x498 (2.35:1), 2611 kbps, 23,976 fps, 0,187 bit/pixel
Аудио №1: AC3 / 5.1 / 48 kHz / 448 kbps / 16 bit | RUS
Аудио №2: AC3 / 5.1 / 48 kHz / 448 kbps / 16 bit | ENG

Релиз группы:
Автор рипа: potroks

Код:

Общее
Уникальный идентификатор : 185335742383027947912637971724501639099 (0x8B6E5D9818EB30E887C85CACB0C9DFBB)
Полное имя : Morpehi.3.V.Osade.2016.DUAL.BDRip.x264.-HELLYWOOD.mkv
Формат : Matroska
Версия формата : Version 4 / Version 2
Размер файла : 2,18 Гбайт
Продолжительность : 1 ч. 28 м.
Общий поток : 3504 Кбит/сек
Название фильма : Jarhead 3: The Siege (2016) - HELLYWOOD
Дата кодирования : UTC 2016-02-05 02:41:34
Программа кодирования : mkvmerge v5.9.0 ('On The Loose') built on Dec 15 2012 16:39:58
Библиотека кодирования : libebml v1.3.0 + libmatroska v1.4.0

Видео
Идентификатор : 1
Формат : AVC
Формат/Информация : Advanced Video Codec
Профиль формата : High@L4.1
Параметр CABAC формата : Да
Параметр ReFrames формата : 9 кадров
Идентификатор кодека : V_MPEG4/ISO/AVC
Продолжительность : 1 ч. 28 м.
Битрейт : 2611 Кбит/сек
Ширина : 1172 пикселя
Высота : 498 пикселей
Соотношение сторон : 2,35:1
Режим частоты кадров : Постоянный
Частота кадров : 23,976 кадра/сек
Цветовое пространство : YUV
Субдискретизация насыщенности : 4:2:0
Битовая глубина : 8 бит
Тип развёртки : Прогрессивная
Бит/(Пиксели*Кадры) : 0.187
Размер потока : 1,58 Гбайт (72%)
Заголовок : potroks
Библиотека кодирования : x264 core 146 r2538 121396c
Настройки программы : cabac=1 / ref=9 / deblock=1:-3:-3 / analyse=0x3:0x113 / me=umh / subme=11 / psy=1 / psy_rd=1.05:0.10 / mixed_ref=1 / me_range=48 / chroma_me=1 / trellis=2 / 8x8dct=1 / cqm=0 / deadzone=21,11 / fast_pskip=0 / chroma_qp_offset=-3 / threads=9 / lookahead_threads=2 / sliced_threads=0 / nr=0 / decimate=0 / interlaced=0 / bluray_compat=0 / constrained_intra=0 / bframes=10 / b_pyramid=2 / b_adapt=2 / b_bias=0 / direct=3 / weightb=1 / open_gop=0 / weightp=2 / keyint=240 / keyint_min=23 / scenecut=40 / intra_refresh=0 / rc_lookahead=60 / rc=2pass / mbtree=0 / bitrate=2611 / ratetol=1.0 / qcomp=0.70 / qpmin=0 / qpmax=69 / qpstep=4 / cplxblur=20.0 / qblur=0.5 / vbv_maxrate=14000 / vbv_bufsize=14000 / nal_hrd=none / filler=0 / ip_ratio=1.40 / pb_ratio=1.30 / aq=1:0.80
Язык : English
Default : Да
Forced : Нет

Аудио #1
Идентификатор : 2
Формат : AC-3
Формат/Информация : Audio Coding 3
Расширение режима : CM (complete main)
Параметр Endianness формата : Big
Идентификатор кодека : A_AC3
Продолжительность : 1 ч. 28 м.
Вид битрейта : Постоянный
Битрейт : 448 Кбит/сек
Каналы : 6 каналов
Расположение каналов : Front: L C R, Side: L R, LFE
Частота : 48,0 КГц
Метод сжатия : С потерями
Размер потока : 285 Мбайт (13%)
Заголовок : Dub | DD 5.1 @ 448 kbps - Blu-Ray CEE
Язык : Russian
Default : Да
Forced : Нет

Аудио #2
Идентификатор : 3
Формат : AC-3
Формат/Информация : Audio Coding 3
Расширение режима : CM (complete main)
Параметр Endianness формата : Big
Идентификатор кодека : A_AC3
Продолжительность : 1 ч. 28 м.
Вид битрейта : Постоянный
Битрейт : 448 Кбит/сек
Каналы : 6 каналов
Расположение каналов : Front: L C R, Side: L R, LFE
Частота : 48,0 КГц
Метод сжатия : С потерями
Размер потока : 285 Мбайт (13%)
Заголовок : Original | DD 5.1 @ 448 kbps
Язык : English
Default : Нет
Forced : Нет

Текст #1
Идентификатор : 4
Формат : UTF-8
Идентификатор кодека : S_TEXT/UTF8
Идентификатор кодека/Информация : UTF-8 Plain Text
Заголовок : Forced
Язык : Russian
Default : Да
Forced : Нет

Текст #2
Идентификатор : 5
Формат : UTF-8
Идентификатор кодека : S_TEXT/UTF8
Идентификатор кодека/Информация : UTF-8 Plain Text
Заголовок : Blu-Ray
Язык : Russian
Default : Нет
Forced : Нет

Текст #3
Идентификатор : 6
Формат : UTF-8
Идентификатор кодека : S_TEXT/UTF8
Идентификатор кодека/Информация : UTF-8 Plain Text
Заголовок : Full
Язык : English
Default : Нет
Forced : Нет

Текст #4
Идентификатор : 7
Формат : UTF-8
Идентификатор кодека : S_TEXT/UTF8
Идентификатор кодека/Информация : UTF-8 Plain Text
Заголовок : SDH
Язык : English
Default : Нет
Forced : Нет

Меню
00:00:00.000 : en:00:00:00.000
00:05:05.263 : en:00:05:05.263
00:09:19.601 : en:00:09:19.601
00:14:26.199 : en:00:14:26.199
00:19:45.142 : en:00:19:45.142
00:23:39.793 : en:00:23:39.793
00:28:47.142 : en:00:28:47.142
00:34:03.291 : en:00:34:03.291
00:40:01.441 : en:00:40:01.441
00:46:18.609 : en:00:46:18.609
00:49:56.368 : en:00:49:56.368
00:54:46.617 : en:00:54:46.617
00:57:43.085 : en:00:57:43.085
01:01:56.171 : en:01:01:56.171
01:05:18.206 : en:01:05:18.206
01:08:21.889 : en:01:08:21.889
01:13:27.236 : en:01:13:27.236
01:19:02.529 : en:01:19:02.529
01:23:29.421 : en:01:23:29.421
01:25:34.379 : en:01:25:34.379

piratbit.org



Скачать Морпехи 3: В осаде через торрент http://i75.fastpic.ru/big/2016/0205/b1/64bd60107f07f304b944c252ce2745b1.png Скачать фильм Морпехи 3: В осаде через торрент бесплантно в хорошем качестве Описание: Отряду морских пехотинцев, чья миссия - защита посольства США в одной из ближневосточных стран, приходится отражать внезапную ... 8.5 10 23
Info! Золотая раздача, скачанное не засчитывается.
Торрент: Зарегистрирован [2016-02-05 02:48] · скачан: 706 раз
Статус: √ проверено
Размер: 2.18 GB
Как cкачать? Как скачать Морпехи 3: В осаде через торрент | UTorrent

% Раздел Тема Автор DL S | L
Фильмы 2016 [DVDrip, WEB-DLRip, HDrip] (DUB, MVO) [ 2.18 GB ] Морпехи 3: В осаде / Jarhead 3: The Siege [2016 военный BDRip-AVC от sokol_ok] DUB sokol_ok Скачать
2 | 0
Фильмы 2016 [DVDrip, WEB-DLRip, HDrip] (DUB, MVO) [ 1.45 GB ] Морпехи 3: В осаде / Jarhead 3: The Siege [2016 военный BDRip-AVC от sokol_ok] DUB sokol_ok Скачать
2 | 0
Фильмы 2016 [DVDrip, WEB-DLRip, HDrip] (DUB, MVO) [ 1.81 GB ] Морпехи 3: В осаде / Jarhead 3: The Siege [2016 военный BDRip-AVC от ExKinoRay DUB ] Ворон Скачать
1 | 0
Фильмы 2016 [DVDrip, WEB-DLRip, HDrip] (DUB, MVO) [ 1.37 GB ] Морпехи 3: В осаде / Jarhead 3: The Siege [2016 военный HDRip DUB ] Ворон Скачать
1 | 0

28-11-2019 20:33  

Отключить всю рекламу на сайте

07-02-2016 17:09 Морпехи 3: В осаде Скачать торрент  

анлимитные патроны, безграничный пафос(Ваха со Старым и рядом не валялись), океаны бреда и тупизны. Не только российское рентв снимает пропагандистскую военную чушь. Время потрачено зря, тот же "уцелевший" с Уолбергом в разы круче.
"Дядя, Вова, Скрипач не нужен" - это к негру на постере, абсолютно непонятно, для чего столько времени экранного отъел этот персонаж.piratbit.org



    Дорогой пользователь! Огромная просьба, поблагодарите релизера, оцените раздачу и оставьте свои комментарий, если Вы скачали Морпехи 3: В осаде через торрент бесплатно! Внесите свою лепту в развитие PiratBit!
    Комментировать посты могут только пользователи прошедшие не сложную регистрацию
    Показать сообщения:    

    Морпехи 3: В осаде через торрент
    Скачать бесплатно Морпехи 3: В осаде
    Морпехи 3: В осаде скачать торрент
    Морпехи 3: В осаде смотреть онлайн
    Cкачать фильм Морпехи 3: В осаде бесплатно
    Морпехи 3: В осаде скачать торрент в хорошем качестве
    Морпехи 3: В осаде смотреть онлайн бесплатно в хорошем качестве


    Вы не можете начинать темы
    Вы не можете отвечать на сообщения
    Вы не можете редактировать свои сообщения
    Вы не можете удалять свои сообщения
    Вы не можете голосовать в опросах
    Вы не можете прикреплять файлы к сообщениям
    Вы можете скачивать файлы