Присоединяйтесь к нам в Telegram!, здесь всегда актуальный адрес сайта, оперативная поддержка и многое другое!!

>

5.9

iTunes

7.4

iTunes

9.4

1 сезон

1

7.4

2 сезон

7.2

iTunes

7.3

1 сезон

13

6.1

iTunes

8.3

Пиратка

30

ULTIMATE

pack

9.9

Лицензия

ВАЖНО

ИГРА 18+

pack

7.3

RePack

MK11

7.7

RePack

jed

7.8

RePack

fifa19

8.5

RePack

RDR2

RePack

NEED FOR SPEED™ PAYBACK

5 сезон

9 сезон

Бесстыжие 9 сезон

Все сериалы

все сериалы на PB.wtf

RePack

FAR CRY 5

Anonymous, доброй ночи, мы катастрофически не успеваем собрать деньги на оплату серверов, помогите нам пожалуйста 5,10,15р., для нас важна любая помощь . В качестве благодарности мы отключим Вам всю рекламу на сайте (укажите свой ник в строку Ваше имя)!

×
  
Magnet ссылка

Артур и Мерлин / Arthur & Merlin (Марко Ван Белль) [2015, фэнтези, WEB-DLRip, Любительский двухголосый [Parovoz Production] piratbit.org

Артур и Мерлин через торрент piratbit.org

Размер: 1.37 GB | Добавлен: 5 лет 9 мес. назад | Торрент скачан:283 раза
Смотреть онлайн Артур и Мерлин | Скачать    Ребята, помогите собрать деньги на оплату серверов!!!

07-02-2016 13:14 Артур и Мерлин Скачать торрент  


Артур и Мерлин / Arthur & Merlin


ИНФОРМАЦИЯ:
Год выпуска:2015
Страна: Великобритания
Жанр: фэнтези
Продолжительность: 01:48:57
Перевод: Любительский двухголосый [Parovoz Production]
Режиссер: Марко Ван Белль

В Ролях:


Кирк Баркер (Arthfael), Стефан Батлер (Myrrdin), Найджел Кук (Aberthol), Charlotte Brimble (Olwen), Адриан Буше (Lucan), Дэвид Стерн (King Vortigern), Николас Асбари (Orin), Эндрю Гроуз (Brian), Garth Maunders (Faelan), Джозеф Аттэнборо (Eogan), Джек Ригби (Anyon), Элисон Харрис (Branwen)

Описание:
Молодой Кельтский воин и мастер-отшельник должны объединиться, чтобы победить злого друида.

  • Мировая премьера:11 апреля 2015

    ТЕХ.ДАННЫЕ:
    Качество: WEB-DLRip
    Формат: AVI
    Видео: XviD, 720x304 (2.35:1), 1525 kbps, 25 fps, 0,279 bpp
    Аудио: AC3 / 2.0 / 48 kHz / 192 kbps / 16 bit


    General
    Complete name : D:\Торенты\Ar3uR.i.M3rL1n.2015.L2.WEB-DLRip.1400MB.avi
    Format : AVI
    Format/Info : Audio Video Interleave
    File size : 1.37 GiB
    Duration : 1h 48mn
    Overall bit rate : 1 798 Kbps
    Writing application : VirtualDubMod 1.5.10.3 | www.virtualdub-fr.org || (build 2550/release)
    Writing library : VirtualDubMod build 2550/release

    Video
    ID : 0
    Format : MPEG-4 Visual
    Format profile : Advanced Simple@L5
    Format settings, BVOP : 2
    Format settings, QPel : No
    Format settings, GMC : No warppoints
    Format settings, Matrix : Default (MPEG)
    Codec ID : XVID
    Codec ID/Hint : XviD
    Duration : 1h 48mn
    Bit rate : 1 526 Kbps
    Width : 720 pixels
    Height : 304 pixels
    Display aspect ratio : 2.35:1
    Frame rate : 25.000 fps
    Color space : YUV
    Chroma subsampling : 4:2:0
    Bit depth : 8 bits
    Scan type : Progressive
    Compression mode : Lossy
    Bits/(Pixel*Frame) : 0.279
    Stream size : 1.16 GiB (85%)
    Writing library : XviD 1.2.1 (UTC 2008-12-04)

    Audio
    ID : 1
    Format : AC-3
    Format/Info : Audio Coding 3
    Mode extension : CM (complete main)
    Codec ID : 2000
    Duration : 1h 48mn
    Bit rate mode : Constant
    Bit rate : 192 Kbps
    Channel(s) : 2 channels
    Channel positions : Front: L R
    Sampling rate : 48.0 KHz
    Bit depth : 16 bits
    Compression mode : Lossy
    Stream size : 150 MiB (11%)
    Alignment : Split accross interleaves
    Скриншоты:

    © Оформление by .::Ворон::.
    piratbit.org
    !Ворон писал(а):

    Внимание, присутствуют вставки голосовой и текстовой рекламы.



  • Скачать Артур и Мерлин через торрент https://pic1.kartinco.top/images/61/ordi9.jpg Скачать, смотреть онлайн Артур и Мерлин бесплантно в хорошем качестве Описание: Молодой Кельтский воин и мастер-отшельник должны объединиться, чтобы победить злого друида. Мировая премьера:11 апреля 2015 ... 7.4 10 7
    Торрент: Зарегистрирован [2016-02-07 13:14] · скачан: 283 раз
    Статус: T временная
    Размер: 1.37 GB
    Как cкачать? Как скачать Артур и Мерлин через торрент | UTorrent



    Последний раз редактировалось: Ворон (2016-02-07 13:20), всего редактировалось 1 раз

    28-11-2019 20:33  

    Отключить всю рекламу на сайте

    07-02-2016 13:19 Артур и Мерлин Скачать торрент  



    piratbit.org



      Дорогой пользователь! Огромная просьба, поблагодарите релизера, оцените раздачу и оставьте свои комментарий, если Вы скачали Артур и Мерлин через торрент бесплатно!
      Комментировать посты могут только пользователи прошедшие не сложную регистрацию
      Показать сообщения:    

      Артур и Мерлин через торрент
      Скачать бесплатно Артур и Мерлин
      Артур и Мерлин скачать торрент
      Артур и Мерлин смотреть онлайн
      Cкачать фильм Артур и Мерлин бесплатно
      Артур и Мерлин скачать торрент в хорошем качестве
      Артур и Мерлин смотреть онлайн бесплатно в хорошем качестве


      Вы не можете начинать темы
      Вы не можете отвечать на сообщения
      Вы не можете редактировать свои сообщения
      Вы не можете удалять свои сообщения
      Вы не можете голосовать в опросах
      Вы не можете прикреплять файлы к сообщениям
      Вы можете скачивать файлы