Доктор Стрэндж

Лицензия

Добыча

MVO

Дом дракона

1 сезон

Тор

Лицензия

Мэверик

Лицензия

Там, где раки поют

MVO

Властелин колец

1 сезон

Ultimate

pack

Рекомендуем

30

Repack

ВАЖНО

ВАЖНО

Ghostwire

RePack

jed

RePack

nioh2

RePack

RDR2

RePack

NEED FOR SPEED™ PAYBACK

RePack

скачать торрент

Кинопоиск HD

Острые козырьки 6 сезон

6 сезон

FAR CRY 6

RePack

скачать торрент

Лицензия

скачать торрент

MVO

1

1 сезон

скачать торрент

1 сезон

скачать торрент

Лицензия

  

Великое прощание (Сергей Герасимов, Илья Копалин, Григорий Александров) [1953, СССР, документальный, SATRip от AVP Studio]

Великое прощание через торрент piratbit.org

Размер: 743 MB | Добавлен: 6 лет 7 мес. назад | Торрент скачан:18 раз
Смотреть онлайн Великое прощание | Скачать   

10-02-2016 09:04 Великое прощание Скачать торрент  

Великое прощание
Страна: СССР
Производство: Мосфильм

Жанр: документальный
Год выпуска: 1953
Продолжительность: 00:46:29

Перевод: Не требуется
Cубтитры: нет
Оригинальная аудиодорожка: русский

Режиссер: Сергей Герасимов, Илья Копалин, Григорий Александров

Описание:
Утро 9 марта 1953 года. Серый, печальный день. Низко плывут над кремлевскими башнями облака. Москва, столица нашей Родины, город, который так любил и лелеял товарищ Сталин, город, который неузнаваемо вырос, похорошел и возмужал, — эта Москва замерла в торжественной скорби. Страна провожает своего отца и вождя. От самого Колонного зала, вдоль здания Совета Министров, Исторического музея, вдоль седой Кремлевской стены — бесконечное множество венков. Все они в траурных лентах, на лентах написано: «Дорогому, любимому Иосифу Виссарионовичу Сталину». Венки из живых цветов. Даже морозный воздух не может умертвить цветы — цветы безграничной любви. Ни на одну минуту не затихает в Колонном зале скорбная поступь народа. Мимо гроба медленно, объятые глубокой печалью, текут и текут скорбные потоки советских людей. Три дня и три ночи шли люди через Колонный зал.
Из газетных статей того времени...

Источник: DVB
Качество видео: SATRip
Формат видео: AVI

Видео: 672x496 (4:3), 25 fps, XviD ~ 2033 kbps avg, 0.244 bit/pixel
Аудио: 48 kHz, Dolby Digital AC3 2.0, 192 kbps

Раздача от:
Общее
Полное имя : Velikoe.proshhanie.1953.SATRip_[New-team]_by_AVP_Studio.avi
Формат : AVI
Формат/Информация : Audio Video Interleave
Размер файла : 743 Мбайт
Продолжительность : 46 м.
Общий поток : 2234 Кбит/сек
Программа кодирования : VirtualDubMod 1.5.10.3 | www.virtualdub-fr.org || (build 2550/release)
Библиотека кодирования : VirtualDubMod build 2550/release

Видео
Идентификатор : 0
Формат : MPEG-4 Visual
Профиль формата : Advanced Simple@L5
Параметр BVOP формата : 1
Параметр QPel формата : Нет
Параметр GMC формата : Без точки перехода
Параметр матрицы формата : Выборочная
Идентификатор кодека : XVID
Идентификатор кодека/Подсказка : XviD
Продолжительность : 46 м.
Битрейт : 2033 Кбит/сек
Ширина : 672 пикселя
Высота : 496 пикселей
Соотношение сторон : 4:3
Частота кадров : 25,000 кадров/сек
Цветовое пространство : YUV
Субдискретизация насыщенности : 4:2:0
Битовая глубина : 8 бит
Тип развёртки : Прогрессивная
Метод сжатия : С потерями
Бит/(Пиксели*Кадры) : 0.244
Размер потока : 676 Мбайт (91%)
Библиотека кодирования : XviD 1.2.1 (UTC 2008-12-04)

Аудио
Идентификатор : 1
Формат : AC-3
Формат/Информация : Audio Coding 3
Расширение режима : CM (complete main)
Параметр Endianness формата : Big
Идентификатор кодека : 2000
Продолжительность : 46 м.
Вид битрейта : Постоянный
Битрейт : 192 Кбит/сек
Каналы : 2 канала
Расположение каналов : Front: L R
Частота : 48,0 КГц
Частота кадров : 31,250 кадров/сек (1536 spf)
Метод сжатия : С потерями
Размер потока : 63,8 Мбайт (9%)
Выравнивание : Разделение по промежуткам
Продолжительность промежутка : 40 мс. (1,00 видеокадр)
Время предзагрузки промежутка : 500 мс



Скачать Великое прощание через торрент http://s017.radikal.ru/i419/1602/eb/331b833a58e6.png Скачать, смотреть онлайн Великое прощание бесплантно в хорошем качестве Описание:Утро 9 марта 1953 года. Серый, печальный день. Низко плывут над кремлевскими башнями облака. Москва, столица нашей Родины, город, ... 10 10 2
Info! Золотая раздача, скачанное не засчитывается.
Торрент: Зарегистрирован [2016-02-10 09:04] · скачан: 18 раз
Статус: √ проверено
Размер: 743 MB
Как cкачать? Как скачать Великое прощание через торрент | UTorrent

% Раздел Тема Автор DL S | L
Кино СССР [ 744 MB ] Великое прощание | | SATRip-AVC от AVP Studio AVP Studio Скачать
1 | 0

28-11-2019 20:33  

Отключить вcю реклaмy на сайте

    Дорогой пользователь! Огромная просьба, поблагодарите релизера, оцените раздачу и оставьте свои комментарий, если Вы скачали Великое прощание через торрент бесплатно!!
    Комментировать посты могут только пользователи прошедшие не сложную регистрацию
    Показать сообщения:    


    Великое прощание через торрент
    Скачать бесплатно Великое прощание
    Великое прощание скачать торрент
    Великое прощание смотреть онлайн
    Cкачать фильм Великое прощание бесплатно
    Великое прощание скачать торрент в хорошем качестве
    Великое прощание смотреть онлайн бесплатно в хорошем качестве
    Вы не можете начинать темы
    Вы не можете отвечать на сообщения
    Вы не можете редактировать свои сообщения
    Вы не можете удалять свои сообщения
    Вы не можете голосовать в опросах
    Вы не можете прикреплять файлы к сообщениям
    Вы можете скачивать файлы