1 сезон

1 сезон

iTunes

1

iTunes

Кинопоиск HD

iTunes

13

1 сезон

RePack

30

Deluxe

ВАЖНО

ИГРА 18+

pack

RePack

MK11
pack

Легкие деньги

RePack

jed

RePack

fifa19

RePack

RDR2

RePack

NEED FOR SPEED™ PAYBACK

4 сезон

9 сезон

Бесстыжие 9 сезон

Все сериалы

все сериалы на PB.wtf

RePack

FAR CRY 5
  
Magnet ссылка

День Святого Валентина / Valentine (Джэми Блэнкс / Jamie Blanks) [2001, США, ужасы, триллер, DVDRip] Дубляж piratbit.org

День Святого Валентина через торрент piratbit.org

Размер: 1.37 GB | Добавлен: 5 лет 3 мес. назад | Торрент скачан:43 раза
Скачать  

11-02-2016 10:13 День Святого Валентина Скачать торрент  

День Святого Валентина / Valentine

Год выпуска: 2001
Страна: США
Жанр: ужасы, триллер

Продолжительность: 01:33:03
Перевод: Дубляж
Субтитры: Нет
Режиссер: Джэми Блэнкс / Jamie Blanks
В ролях: Дениз Ричардс (Paige Prescott), Дэвид Бореаназ (Adam Carr), Марли Шелтон (Kate Davies), Джессика Кэпшоу (Dorothy Wheeler), Джессика Коффил (Lily Voight), Кэтрин Хайгл (Shelley Fisher), Хеди Барресс (Ruthie Walker), Фульвио Чечере (Detective Leon Vaughn), Дэниэл Косгров (Campbell Morris), Джонни Витуорт (Max Raimi), Вуди Джеффрис (Brian), Адам Хэррингтон (Jason Marquette)
Описание:
Помнишь паренька, над которым все издевались в День Святого Валентина? Он тебя не забыл. Месть сладка, как конфетка ко Дню всех влюбленных. Во всяком случае, так думает убийца в маске Купидона.
Давным-давно, в школьной юности, компания красивых подружек находила забавным поиздеваться над прыщавым неудачником. Прошли годы, он вырос. И ничего не забыл.
Рейтинг
kinopoisk.ru: 5.752 (3011)
imdb.com: 4.70 (19 753)
MPAA: R - Лицам до 17 лет обязательно присутствие взрослого
Качество: DVDRip
Формат: AVI
Видео кодек: XviD
Аудио кодек:AC3
Видео: XviD, 704x288 (2.40:1), 1712 kbps, 25 fps, 0,338 bpp
Аудио: русский / AC3 / 5.1 / 48 kHz / 384 kbps / 16 bit ||





General
Complete name : D:\torrent\Den.Svjatogo.Valentina.2001.XviD.DVDRip.avi
Format : AVI
Format/Info : Audio Video Interleave
File size : 1.37 GiB
Duration : 1h 33mn
Overall bit rate : 2 101 Kbps
Writing application : VirtualDubMod 1.5.4.1 (build 2178/release)
Writing library : VirtualDubMod build 2178/release

Video
ID : 0
Format : MPEG-4 Visual
Format profile : Advanced Simple@L5
Format settings, BVOP : No
Format settings, QPel : No
Format settings, GMC : No warppoints
Format settings, Matrix : Custom
Codec ID : XVID
Codec ID/Hint : XviD
Duration : 1h 33mn
Bit rate : 1 713 Kbps
Width : 704 pixels
Height : 288 pixels
Display aspect ratio : 2.40:1
Frame rate : 25.000 fps
Color space : YUV
Chroma subsampling : 4:2:0
Bit depth : 8 bits
Scan type : Progressive
Compression mode : Lossy
Bits/(Pixel*Frame) : 0.338
Stream size : 1.11 GiB (82%)
Writing library : XviD 1.2.0.dev47 (UTC 2006-11-01)

Audio
ID : 1
Format : AC-3
Format/Info : Audio Coding 3
Mode extension : CM (complete main)
Codec ID : 2000
Duration : 1h 32mn
Bit rate mode : Constant
Bit rate : 384 Kbps
Channel(s) : 6 channels
Channel positions : Front: L C R, Side: L R, LFE
Sampling rate : 48.0 KHz
Bit depth : 16 bits
Compression mode : Lossy
Stream size : 254 MiB (18%)
Alignment : Split accross interleaves
Interleave, duration : 97 ms (2.42 video frames)
Interleave, preload duration : 96 ms
Language : Russian
piratbit.org



Скачать День Святого Валентина через торрент https://pic.kartinco.top/images/11/fpm31.jpg Скачать фильм День Святого Валентина через торрент бесплантно в хорошем качестве Описание: Помнишь паренька, над которым все издевались в День Святого Валентина? Он тебя не забыл. Месть сладка, как конфетка ко Дню всех ... 10 10 3
Торрент: Зарегистрирован [2016-02-11 10:13] · скачан: 43 раз
Статус: √ проверено
Размер: 1.37 GB
Как cкачать? Как скачать День Святого Валентина через торрент | UTorrent

28-11-2019 20:33  

Отключить всю рекламу на сайте

    Дорогой пользователь! Огромная просьба, поблагодарите релизера, оцените раздачу и оставьте свои комментарий, если Вы скачали День Святого Валентина через торрент бесплатно! Внесите свою лепту в развитие PiratBit!
    Комментировать посты могут только пользователи прошедшие не сложную регистрацию
    Показать сообщения:    

    День Святого Валентина через торрент
    Скачать бесплатно День Святого Валентина
    День Святого Валентина скачать торрент
    День Святого Валентина смотреть онлайн
    Cкачать фильм День Святого Валентина бесплатно
    День Святого Валентина скачать торрент в хорошем качестве
    День Святого Валентина смотреть онлайн бесплатно в хорошем качестве


    Вы не можете начинать темы
    Вы не можете отвечать на сообщения
    Вы не можете редактировать свои сообщения
    Вы не можете удалять свои сообщения
    Вы не можете голосовать в опросах
    Вы не можете прикреплять файлы к сообщениям
    Вы можете скачивать файлы