Ссылка на приватное зеркало нашего сайта всего за 1$. Внимание количество ограничено!!!

2 сезон

iTunes

iTunes

1

iTunes

iTunes

iTunes

WEBRip

iTunes

30
pack

Вам бонус

ВАЖНО

!!Акция!!

Alien_RageХит недели

RePack

Horizon Zero Dawn

ИГРА 18+

pack

RePack

jed

!!Акция!!

Alien_Rage

RePack

fifa19

RePack

Assassins Creed: Odyssey

RePack

NEED FOR SPEED™ PAYBACK

4 сезон

9 сезон

Бесстыжие 9 сезон

Все сериалы

все сериалы на PB.wtf

RePack

FAR CRY 5
  

Мистер Вудкок / Мистер Простофиля / Mr. Woodcock (Крэйг Гиллеспи) [2007, Комедия, DVB] [Open Matte Transfer] [MVO] (Студия "Пифагор") piratbit.org

Мистер Вудкок через торрент piratbit.org

Размер: 1.79 GB | Добавлен: 4 года 7 мес. назад | Торрент скачан:52 раза
Скачать  

13-02-2016 08:53 Мистер Вудкок Скачать торрент  

Мистер Вудкок / Мистер Простофиля / Mr. Woodcock
Год выпуска: 2007
Страна: США
Жанр: Комедия
Продолжительность: 01:25:51
Перевод: Профессиональный (многоголосый, закадровый) [Студия "Пифагор"]
Cубтитры: нет

Режиссер: Крэйг Гиллеспи

В ролях: Билли Боб Торнтон, Шон Уильям Скотт, Сьюзан Сарандон, Эми Поэлер, Итан Сапли, Мелисса Сейджмиллер Известный молодой писатель - Джон Фарли возвращается в свой родной город. Там он с большим удивлением понимает, что его мама, которую он сильно любит собирается выйти замуж за его бывшего учителя – мистера Вудкокера. В свое время, этот учитель физкультуры сумел попортить жизни многим ученикам школы, но он с какой то особой ненавистью относился к самому Джону. Теперь наш герой будет стараться расстроить брак и спасти мать от физкультурника- садиста...



Качество видео: DVB
Формат видео: TS
Видео: 720x576 (4:3) @ 786x576, 25.000 fps, AVC, ~2647 Kbps, 0.254 bits/pixel
Аудио: 48.0 KHz, MPEG-1 Audio layer 2, 2 ch, 256 Kbps
Фильм представлен в редком формате "скрытого кашетирования". Прочитать о данном формате можно тут: http://ru.wikipedia.org/wiki/%D0%A1%D0%BA%D1%80%D1%...0%BD%D0%B8%D0%B5
Также качественная озвучка студии "Пифагор" по заказу WB.
General
ID : 1 (0x1)
Complete name : D:\ФИЛЬМЫ\зарелизил\Мистер Вудкок (МВО Пифагор).ts
Format : MPEG-TS
File size : 1.79 GiB
Duration : 1h 23mn
Overall bit rate : 3 057 Kbps
Video
ID : 37 (0x25)
Menu ID : 1 (0x1)
Format : AVC
Format/Info : Advanced Video Codec
Format profile : High@L3.0
Format settings, CABAC : Yes
Format settings, ReFrames : 3 frames
Codec ID : 27
Duration : 1h 23mn
Bit rate : 2 647 Kbps
Width : 720 pixels
Height : 576 pixels
Display aspect ratio : 4:3
Frame rate : 25.000 fps
Standard : Component
Color space : YUV
Chroma subsampling : 4:2:0
Bit depth : 8 bits
Scan type : Interlaced
Scan order : Top Field First
Bits/(Pixel*Frame) : 0.255
Stream size : 1.55 GiB (87%)
Color primaries : BT.470-6 System B, BT.470-6 System G, BT.601-6 625, BT.1358 625, BT.1700 625 PAL, BT.1700 625 SECAM
Transfer characteristics : BT.470-6 System B, BT.470-6 System G
Matrix coefficients : BT.470-6 System B, BT.470-6 System G, BT.601-6 625, BT.1358 625, BT.1700 625 PAL, BT.1700 625 SECAM, IEC 61966-2-4 601
Audio
ID : 32 (0x20)
Menu ID : 1 (0x1)
Format : MPEG Audio
Format version : Version 1
Format profile : Layer 2
Codec ID : 3
Duration : 1h 23mn
Bit rate mode : Constant
Bit rate : 256 Kbps
Channel(s) : 2 channels
Sampling rate : 48.0 KHz
Compression mode : Lossy
Stream size : 154 MiB (8%)
Language : English
скриншот   скриншот   скриншот   скриншот  
piratbit.org



Скачать Мистер Вудкок через торрент http://i74.fastpic.ru/big/2016/0213/dd/83c4ffb1ccdbddeb93942c934b4168dd.jpg Скачать фильм Мистер Вудкок через торрент бесплантно в хорошем качестве В ролях: Билли Боб Торнтон, Шон Уильям Скотт, Сьюзан Сарандон, Эми Поэлер, Итан Сапли, Мелисса Сейджмиллер Известный молодой писатель - ... 10 10 3
Торрент: Зарегистрирован [2016-02-13 08:53] · скачан: 52 раз
Статус: √ проверено
Размер: 1.79 GB
Как cкачать? Как скачать Мистер Вудкок через торрент | qTorrent

28-11-2019 20:33  

Отключить всю рекламу на сайте

    Дорогой пользователь! Огромная просьба, поблагодарите релизера, оцените раздачу и оставьте свои комментарий, если Вы скачали Мистер Вудкок через торрент бесплатно! Внесите свою лепту в развитие PiratBit!
    Комментировать посты могут только пользователи прошедшие не сложную регистрацию
    Показать сообщения:    

    Мистер Вудкок через торрент
    Скачать бесплатно Мистер Вудкок
    Мистер Вудкок скачать торрент
    Мистер Вудкок смотреть онлайн
    Cкачать фильм Мистер Вудкок бесплатно
    Мистер Вудкок скачать торрент в хорошем качестве
    Мистер Вудкок смотреть онлайн бесплатно в хорошем качестве


    Вы не можете начинать темы
    Вы не можете отвечать на сообщения
    Вы не можете редактировать свои сообщения
    Вы не можете удалять свои сообщения
    Вы не можете голосовать в опросах
    Вы не можете прикреплять файлы к сообщениям
    Вы можете скачивать файлы