Присоединяйтесь к нам в Telegram!, здесь всегда актуальный адрес сайта, оперативная поддержка и многое другое!!

>

5.9

iTunes

7.4

iTunes

9.4

1 сезон

1

7.4

2 сезон

7.2

iTunes

7.3

1 сезон

13

6.1

iTunes

8.3

GOG

30

ULTIMATE

pack

9.9

Лицензия

ВАЖНО

ИГРА 18+

pack

7.3

RePack

MK11

7.7

RePack

jed

7.8

RePack

fifa19

8.5

RePack

RDR2

RePack

NEED FOR SPEED™ PAYBACK

5 сезон

9 сезон

Бесстыжие 9 сезон

Все сериалы

все сериалы на PB.wtf

RePack

FAR CRY 5

Anonymous, добрый день, мы катастрофически не успеваем собрать деньги на оплату серверов, помогите нам пожалуйста 5,10,15р., для нас важна любая помощь . В качестве благодарности мы отключим Вам всю рекламу на сайте (укажите свой ник в строку Ваше имя)!

×
  
Magnet ссылка

Нина навсегда / Nina Forever (Бен Блейн, Крис Блейн) [2015, ужасы, мелодрама, комедия, WEB-DLRip, Любительский двухголосый [den904, DeadSno] (без рекламы) piratbit.org

Нина навсегда через торрент piratbit.org

Размер: 1.45 GB | Добавлен: 5 лет 9 мес. назад | Торрент скачан:436 раз
Смотреть онлайн Нина навсегда | Скачать    Ребята, помогите собрать деньги на оплату серверов!!!

13-02-2016 20:05 Нина навсегда Скачать торрент  


Нина навсегда / Nina Forever
««A fucked up fairy tale»»

ИНФОРМАЦИЯ:
Год выпуска:2015
Страна: Великобритания
Жанр: ужасы, мелодрама, комедия
Продолжительность: 01:38:44
Перевод: Любительский двухголосый [den904, DeadSno]
Режиссер: Бен Блейн, Крис Блейн

В Ролях:


Фиона О’Шонесси (Nina), Эбигейл Хардингэм (Holly), Киэн Бэрри (Rob), Дэвид Тротон (Dan), Элизабет Элвин (Sally), Билл Холлэнд (Waiter), Ли Николас Харрис (Police Officer), Шон Верей (Josh), Фелим Келли (Shopper), Ричард Сэндлинг (Bus Passenger), Джаван Хирст (David), Кэтрин Беннетт-Фокс (Kelly)

Описание:
После того, как его подруга Нина погибает в автокатастрофе, Роб совершает неудачную попытку самоубийства. Чтобы преодолеть свое горе, он влюбляется в коллегу, Холли. Их отношения усложняются, когда Нина, не в силах найти покой в загробной жизни, возвращается к жизни, чтобы с сарказмом мучить их, когда они занимаются сексом.

  • Мировая премьера:22 февраля 2015

    ТЕХ.ДАННЫЕ:
    Качество: WEB-DLRip
    Формат: AVI
    Видео: XviD, 720x304 (2.35:1), 1621 kbps, 24 fps, 0,309 bpp
    Аудио №1: AC3 / 2.0 / 48 kHz / 192 kbps / Russian
    Аудио №2: AC3 / 2.0 / 48 kHz / 192 kbps / English


    General
    Complete name : D:\Торенты\Nina.Forever.2015.L2.WEB-DLRip.avi
    Format : AVI
    Format/Info : Audio Video Interleave
    File size : 1.45 GiB
    Duration : 1h 38mn
    Overall bit rate : 2 100 Kbps
    Writing application : VirtualDubMod 1.5.10.3 | www.virtualdub-fr.org || (build 2550/release)
    Writing library : VirtualDubMod build 2550/release

    Video
    ID : 0
    Format : MPEG-4 Visual
    Format profile : Advanced Simple@L5
    Format settings, BVOP : 1
    Format settings, QPel : No
    Format settings, GMC : No warppoints
    Format settings, Matrix : Custom
    Codec ID : XVID
    Codec ID/Hint : XviD
    Duration : 1h 38mn
    Bit rate : 1 622 Kbps
    Width : 720 pixels
    Height : 304 pixels
    Display aspect ratio : 2.35:1
    Frame rate : 24.000 fps
    Color space : YUV
    Chroma subsampling : 4:2:0
    Bit depth : 8 bits
    Scan type : Progressive
    Compression mode : Lossy
    Bits/(Pixel*Frame) : 0.309
    Stream size : 1.12 GiB (77%)
    Writing library : XviD 73

    Audio #1
    ID : 1
    Format : AC-3
    Format/Info : Audio Coding 3
    Mode extension : CM (complete main)
    Codec ID : 2000
    Duration : 1h 38mn
    Bit rate mode : Constant
    Bit rate : 192 Kbps
    Channel(s) : 2 channels
    Channel positions : Front: L R
    Sampling rate : 48.0 KHz
    Bit depth : 16 bits
    Compression mode : Lossy
    Stream size : 136 MiB (9%)
    Alignment : Split accross interleaves

    Audio #2
    ID : 2
    Format : AC-3
    Format/Info : Audio Coding 3
    Mode extension : CM (complete main)
    Codec ID : 2000
    Duration : 1h 38mn
    Bit rate mode : Constant
    Bit rate : 192 Kbps
    Channel(s) : 2 channels
    Channel positions : Front: L R
    Sampling rate : 48.0 KHz
    Bit depth : 16 bits
    Compression mode : Lossy
    Stream size : 136 MiB (9%)
    Alignment : Split accross interleaves
    Скриншоты:

    © Оформление by .::Ворон::.
    piratbit.org



  • Скачать Нина навсегда через торрент https://pic1.kartinco.top/images/61/ordi9.jpg Скачать, смотреть онлайн Нина навсегда бесплантно в хорошем качестве Описание: После того, как его подруга Нина погибает в автокатастрофе, Роб совершает неудачную попытку самоубийства. Чтобы преодолеть свое ... 9 10 10
    Торрент: Зарегистрирован [2016-02-13 20:05] · скачан: 436 раз
    Статус: T временная
    Размер: 1.45 GB
    Как cкачать? Как скачать Нина навсегда через торрент | UTorrent

    % Раздел Тема Автор DL S | L
    T Фильмы 2015 [DVDrip, WEB-DLRip, HDrip] [ 1.45 GB ] Нина навсегда / Nina Forever [2015 WEB-DLRip Дублированное [Line] Ворон Скачать
    1 | 0

    28-11-2019 20:33  

    Отключить всю рекламу на сайте

    13-02-2016 20:08 Нина навсегда Скачать торрент  



    piratbit.org



      Дорогой пользователь! Огромная просьба, поблагодарите релизера, оцените раздачу и оставьте свои комментарий, если Вы скачали Нина навсегда через торрент бесплатно!
      Комментировать посты могут только пользователи прошедшие не сложную регистрацию
      Показать сообщения:    

      Нина навсегда через торрент
      Скачать бесплатно Нина навсегда
      Нина навсегда скачать торрент
      Нина навсегда смотреть онлайн
      Cкачать фильм Нина навсегда бесплатно
      Нина навсегда скачать торрент в хорошем качестве
      Нина навсегда смотреть онлайн бесплатно в хорошем качестве


      Вы не можете начинать темы
      Вы не можете отвечать на сообщения
      Вы не можете редактировать свои сообщения
      Вы не можете удалять свои сообщения
      Вы не можете голосовать в опросах
      Вы не можете прикреплять файлы к сообщениям
      Вы можете скачивать файлы