1 сезон

iTunes

iTunes

1

Line

MVO

iTunes

13

1 сезон

RePack

30

Deluxe

pack

Лицензия

ВАЖНО

ИГРА 18+

pack

RePack

MK11

RePack

jed

RePack

fifa19

RePack

RDR2

RePack

NEED FOR SPEED™ PAYBACK

4 сезон

9 сезон

Бесстыжие 9 сезон

Все сериалы

все сериалы на PB.wtf

RePack

FAR CRY 5

Anonymous, добрый день, мы катастрофически не успеваем собрать деньги на оплату серверов, помогите нам пожалуйста 5,10,15р., для нас важна любая помощь . В качестве благодарности мы отключим Вам всю рекламу на сайте (укажите свой ник в строку Ваше имя)!

×
  
Magnet ссылка

(Progressive Rock) Pink Floyd - The Dark Side of the Moon - 1985, FLAC (image+.cue), lossless piratbit.org

через торрент piratbit.org

Размер: 244 MB | Добавлен: 11 лет назад | Торрент скачан:184 раза
Скачать  

03-08-2010 03:37 Скачать торрент  

Pink Floyd - The Dark Side of the Moon

Производитель диска: USA
Жанр: Progressive Rock
Год выпуска диска: 1985
Формат: FLAC (image+.cue)
Битрейт аудио: lossless
Продолжительность: 42:54
Лейбл: Capitol Records
Номер каталога: CDP 7 46001 2

Трэклист:
01. Speak to Me - Breathe In The Air (3:58)
02. On the Run (3:35)
03. Time (7:05)
04. The Great Gig in the Sky (4:47)
05. Money (6:23)
06. Us and Them (7:50)
07. Any Colour You Like (3:26)
08. Brain Damage (3:50)
09. Eclipse (2:01)

EAC extraction logfile from 29. November 2007, 22:27 for CD
Pink Floyd / The Dark Side of the Moon

Used drive : _NEC DVD+-RW ND-6500A Adapter: 0 ID: 0
Read mode : Secure with NO C2, accurate stream, disable cache
Read offset correction : 48
Overread into Lead-In and Lead-Out : No

Used output format : Internal WAV Routines
44.100 Hz; 16 Bit; Stereo

Other options :
Fill up missing offset samples with silence : Yes
Delete leading and trailing silent blocks : No
Installed external ASPI interface

Range status and errors
Selected range
Filename Pink Floyd - 1973 - The Dark Side Of The Moon (AAD).wav

Peak level 95.5 %
Range quality 100.0 %
CRC F2C177A6
Copy OK

No errors occured

End of status report
REM GENRE Rock
REM DATE 1973
REM DISCID 7D0A0E09
REM COMMENT "ExactAudioCopy v0.95b4"
PERFORMER "Pink Floyd"
TITLE "Dark Side of the Moon"
FILE "Pink Floyd - 1973 - The Dark Side Of The Moon (AAD).wav" WAVE
TRACK 01 AUDIO
TITLE "Speak to Me - Breathe In The Air"
PERFORMER "Pink Floyd"
INDEX 01 00:00:00
TRACK 02 AUDIO
TITLE "On the Run"
PERFORMER "Pink Floyd"
INDEX 01 03:57:60
TRACK 03 AUDIO
TITLE "Time"
PERFORMER "Pink Floyd"
INDEX 01 07:32:57
TRACK 04 AUDIO
TITLE "The Great Gig in the Sky"
PERFORMER "Pink Floyd"
INDEX 01 14:37:47
TRACK 05 AUDIO
TITLE "Money"
PERFORMER "Pink Floyd"
INDEX 01 19:24:50
TRACK 06 AUDIO
TITLE "Us and Them"
PERFORMER "Pink Floyd"
INDEX 01 25:47:17
TRACK 07 AUDIO
TITLE "Any Colour You Like"
PERFORMER "Pink Floyd"
INDEX 01 33:37:30
TRACK 08 AUDIO
TITLE "Brain Damage"
PERFORMER "Pink Floyd"
INDEX 01 37:03:05
TRACK 09 AUDIO
TITLE "Eclipse"
PERFORMER "Pink Floyd"
INDEX 01 40:53:42
piratbit.org



Скачать через торрент http://i8.fastpic.ru/big/2010/0803/51/958372e03314ee52208eace60c08dd51.png Скачать фильм через торрент бесплантно в хорошем качестве Трэклист: Speak to Me - Breathe In The Air (3:58) On the Run (3:35) Time (7:05) The Great Gig in the Sky (4:47) Money ... 10 10 3
Info! Золотая раздача, скачанное не засчитывается.
Торрент: Зарегистрирован [2010-08-03 03:37] · скачан: 184 раз
Статус: √ проверено
Размер: 244 MB
Как cкачать? Как скачать через торрент | UTorrent

% Раздел Тема Автор DL S | L
Classic Rock & Hard Rock (lossless) [ 2.68 GB ] EVANESCENCE Дискография - 1998-2007 FLAC lossless ser_1985 Скачать
1 | 0
Eurodance, Technopop, Disco (lossless) [ 1.86 GB ] Dr. Alban Студийные альбомы - 5CD [FLAC lossless] tauras Скачать
1 | 0
Action FPS (1st Person) [ 8.89 GB ] Star Wars: The Force Unleashed - Ultimate Sith Edition [Lossless Repack RU/EN] от Druid =Чувак= Скачать
1 | 0
Архив (Alternative, Punk, Independent) [ 1.74 GB ] Breaking Benjamin - Дискография - 2001-2009 FLAC lossless King_IS_Back Скачать
1 | 0
Гоночные симуляторы [ 3.18 GB ] Дальнобойщик​и 3: Золотое Издание [Lossless Repack RU] от R.G. Catalyst roman3310i Скачать
1 | 0
Архив (Многоканальная музыка и собственные оцифровки) [ 405 MB ] Black Sabbath -Heaven & hell - 1980 DTS lossless staryirocker Скачать
1 | 0
RTS (стратегии в реальном времени) [ 4.21 GB ] Command & Conquer 4: Tiberian Twilight [Lossless RePackRUEA] Alex_Zeyn Скачать
1 | 0

28-11-2019 20:33  

Отключить всю рекламу на сайте

    Дорогой пользователь! Огромная просьба, поблагодарите релизера, оцените раздачу и оставьте свои комментарий, если Вы скачали через торрент бесплатно! Внесите свою лепту в развитие PiratBit!
    Комментировать посты могут только пользователи прошедшие не сложную регистрацию
    Показать сообщения:    

    через торрент
    Скачать бесплатно
    скачать торрент
    смотреть онлайн
    Cкачать фильм бесплатно
    скачать торрент в хорошем качестве
    смотреть онлайн бесплатно в хорошем качестве


    Вы не можете начинать темы
    Вы не можете отвечать на сообщения
    Вы не можете редактировать свои сообщения
    Вы не можете удалять свои сообщения
    Вы не можете голосовать в опросах
    Вы не можете прикреплять файлы к сообщениям
    Вы можете скачивать файлы