1 сезон

3 сезон

iTunes

1

iTunes

MVO

iTunes

13

1 сезон

RePack

30

Deluxe

pack

Лицензия

ВАЖНО

ИГРА 18+

pack

RePack

MK11

RePack

jed

RePack

fifa19

RePack

RDR2

RePack

NEED FOR SPEED™ PAYBACK

4 сезон

9 сезон

Бесстыжие 9 сезон

Все сериалы

все сериалы на PB.wtf

RePack

FAR CRY 5

Anonymous, добрый вечер, мы катастрофически не успеваем собрать деньги на оплату серверов, помогите нам пожалуйста 5,10,15р., для нас важна любая помощь . В качестве благодарности мы отключим Вам всю рекламу на сайте (укажите свой ник в строку Ваше имя)!

×
  
Magnet ссылка

(Psychedelic Rock) The Doors - L.A. Woman - 1990, FLAC (image+.cue), lossless piratbit.org

через торрент piratbit.org

Размер: 326 MB | Добавлен: 10 лет назад | Торрент скачан:24 раза
Скачать  

03-08-2010 15:38 Скачать торрент  

The Doors - L.A. Woman

Производитель диска: USA
Жанр: Psychedelic Rock
Год выпуска диска: 1990
Формат: FLAC (image+.cue)
Битрейт аудио: lossless
Продолжительность: 48:46
Лейбл: Elektra
Номер каталога: EKS-75011-2

Трэклист:
01. The Changeling (4:21)
02. Love Her Madly (3:21)
03. Been Down So Long (4:41)
04. Cars Hiss by My Window (4:12)
05. LA Woman (7:55)
06. L'America (4:38)
07. Hyacinth House (3:12)
08. Crawling King Snake (5:01)
09. The Wasp (Texas Radio and the Big Beat) (4:16)
10. Riders on the Storm (7:09)

Exact Audio Copy V0.99 prebeta 5 from 4. May 2009

Отчёт EAC об извлечении, выполненном 6. апреля 2010, 16:05

The Doors / LA Woman

Дисковод: Optiarc DVD RW AD-7200S Adapter: 2 ID: 0

Режим чтения : Достоверность
Использование точного потока : Да
Отключение кэша аудио : Да
Использование указателей C2 : Нет

Коррекция смещения при чтении : 48
Способность читать области Lead-in и Lead-out : Нет
Заполнение пропущенных сэмплов тишиной : Да
Удаление блоков с тишиной в начале и конце : Нет
При вычислениях CRC использовались нулевые сэмплы : Да
Интерфейс : Установленный внешний ASPI-интерфейс

Выходной формат : Внутренние WAV-операции
Формат сэмплов : 44.100 Гц; 16 бит; стерео

TOC извлечённого CD

Трек | Старт | Длительность | Начальный сектор | Конечный сектор
---------------------------------------------------------------------
1 | 0:00.32 | 4:21.25 | 32 | 19631
2 | 4:21.57 | 3:20.68 | 19632 | 34699
3 | 7:42.50 | 4:41.17 | 34700 | 55791
4 | 12:23.67 | 4:12.03 | 55792 | 74694
5 | 16:35.70 | 7:55.37 | 74695 | 110356
6 | 24:31.32 | 4:37.53 | 110357 | 131184
7 | 29:09.10 | 3:11.70 | 131185 | 145579
8 | 32:21.05 | 5:00.45 | 145580 | 168124
9 | 37:21.50 | 4:16.07 | 168125 | 187331
10 | 41:37.57 | 7:09.10 | 187332 | 219516

Характеристики диапазона извлечения и сообщения об ошибках

Выбранный диапазон

Имя файла E:\МОИ РАЗДАЧИ\The Doors - LA Woman 1971\The Doors - LA Woman.wav

Пиковый уровень 90.5 %
Качество диапазона 100.0 %
CRC копии 0CB9D512
Копирование... OK

Ошибок не произошло


AccurateRip: сводка

Трек 1 точное извлечение (доверие 78) [0806F21A]
Трек 2 точное извлечение (доверие 78) [2CE32AAF]
Трек 3 точное извлечение (доверие 78) [D2FBCB41]
Трек 4 точное извлечение (доверие 82) [5866F600]
Трек 5 точное извлечение (доверие 79) [855FE989]
Трек 6 точное извлечение (доверие 78) [5A4232C5]
Трек 7 точное извлечение (доверие 78) [BBD95811]
Трек 8 точное извлечение (доверие 78) [F2DEA557]
Трек 9 точное извлечение (доверие 79) [C4AF1BBB]
Трек 10 точное извлечение (доверие 77) [888A321B]

Все треки извлечены точно

Конец отчёта
REM GENRE "Classic Rock"
REM DATE 1971
REM DISCID 950B6E0A
REM COMMENT "ExactAudioCopy v0.99pb5"
PERFORMER "The Doors"
TITLE "LA Woman"
FILE "The Doors - LA Woman.wav" WAVE
TRACK 01 AUDIO
TITLE "The Changeling"
PERFORMER "The Doors"
INDEX 00 00:00:00
INDEX 01 00:00:32
TRACK 02 AUDIO
TITLE "Love Her Madly"
PERFORMER "The Doors"
INDEX 00 04:19:37
INDEX 01 04:21:57
TRACK 03 AUDIO
TITLE "Been Down So Long"
PERFORMER "The Doors"
INDEX 00 07:40:15
INDEX 01 07:42:50
TRACK 04 AUDIO
TITLE "Cars Hiss by My Window"
PERFORMER "The Doors"
INDEX 00 12:22:37
INDEX 01 12:23:67
TRACK 05 AUDIO
TITLE "LA Woman"
PERFORMER "The Doors"
INDEX 00 16:32:37
INDEX 01 16:35:70
TRACK 06 AUDIO
TITLE "L'America"
PERFORMER "The Doors"
INDEX 00 24:25:07
INDEX 01 24:31:32
TRACK 07 AUDIO
TITLE "Hyacinth House"
PERFORMER "The Doors"
INDEX 00 29:05:52
INDEX 01 29:09:10
TRACK 08 AUDIO
TITLE "Crawling King Snake"
PERFORMER "The Doors"
INDEX 00 32:19:25
INDEX 01 32:21:05
TRACK 09 AUDIO
TITLE "The Wasp (Texas Radio and the Big Beat)"
PERFORMER "The Doors"
INDEX 00 37:19:67
INDEX 01 37:21:50
TRACK 10 AUDIO
TITLE "Riders on the Storm"
PERFORMER "The Doors"
INDEX 00 41:34:62
INDEX 01 41:37:57
piratbit.org



Скачать через торрент http://i6.fastpic.ru/big/2010/0406/8f/d937982bf66d7ea1128aeeda2d3d448f.jpg Скачать фильм через торрент бесплантно в хорошем качестве Трэклист: The Changeling (4:21) Love Her Madly (3:21) Been Down So Long (4:41) Cars Hiss by My Window (4:12) LA Woman ... 10 10 1
Info! Золотая раздача, скачанное не засчитывается.
Торрент: Зарегистрирован [2010-08-03 15:38] · скачан: 24 раз
Статус: √ проверено
Размер: 326 MB
Как cкачать? Как скачать через торрент | UTorrent

% Раздел Тема Автор DL S | L
Classic Rock & Hard Rock (lossless) [ 2.68 GB ] EVANESCENCE Дискография - 1998-2007 FLAC lossless ser_1985 Скачать
1 | 0
Eurodance, Technopop, Disco (lossless) [ 1.86 GB ] Dr. Alban Студийные альбомы - 5CD [FLAC lossless] tauras Скачать
1 | 0
Action FPS (1st Person) [ 8.89 GB ] Star Wars: The Force Unleashed - Ultimate Sith Edition [Lossless Repack RU/EN] от Druid =Чувак= Скачать
1 | 0
Архив (Alternative, Punk, Independent) [ 1.74 GB ] Breaking Benjamin - Дискография - 2001-2009 FLAC lossless King_IS_Back Скачать
1 | 0
Гоночные симуляторы [ 3.18 GB ] Дальнобойщик​и 3: Золотое Издание [Lossless Repack RU] от R.G. Catalyst roman3310i Скачать
1 | 0
Архив (Многоканальная музыка и собственные оцифровки) [ 405 MB ] Black Sabbath -Heaven & hell - 1980 DTS lossless staryirocker Скачать
1 | 0
RTS (стратегии в реальном времени) [ 4.21 GB ] Command & Conquer 4: Tiberian Twilight [Lossless RePackRUEA] Alex_Zeyn Скачать
1 | 0

28-11-2019 20:33  

Отключить всю рекламу на сайте


    Дорогой пользователь! Огромная просьба, поблагодарите релизера, оцените раздачу и оставьте свои комментарий, если Вы скачали через торрент бесплатно! Внесите свою лепту в развитие PiratBit!
    Комментировать посты могут только пользователи прошедшие не сложную регистрацию
    Показать сообщения:    

    через торрент
    Скачать бесплатно
    скачать торрент
    смотреть онлайн
    Cкачать фильм бесплатно
    скачать торрент в хорошем качестве
    смотреть онлайн бесплатно в хорошем качестве


    Вы не можете начинать темы
    Вы не можете отвечать на сообщения
    Вы не можете редактировать свои сообщения
    Вы не можете удалять свои сообщения
    Вы не можете голосовать в опросах
    Вы не можете прикреплять файлы к сообщениям
    Вы можете скачивать файлы