Присоединяйтесь к нам в Telegram!, здесь всегда актуальный адрес сайта, оперативная поддержка и многое другое!!

>

5.9

iTunes

7.4

iTunes

9.4

1 сезон

1

7.4

2 сезон

7.2

iTunes

7.3

iTunes

13

6.1

iTunes

8.3

Пиратка

30

ULTIMATE

pack

9.9

Лицензия

ВАЖНО

ИГРА 18+

pack

7.3

RePack

MK11

7.7

RePack

jed

7.8

RePack

fifa19

8.5

RePack

RDR2

RePack

NEED FOR SPEED™ PAYBACK

5 сезон

9 сезон

Бесстыжие 9 сезон

Все сериалы

все сериалы на PB.wtf

RePack

FAR CRY 5

Anonymous, добрый вечер, мы катастрофически не успеваем собрать деньги на оплату серверов, помогите нам пожалуйста 5,10,15р., для нас важна любая помощь . В качестве благодарности мы отключим Вам всю рекламу на сайте (укажите свой ник в строку Ваше имя)!

×
  
Magnet ссылка

Переломный момент / The Gamechangers (Оуэн Харрис) [2015, драма, биография, WEBRip, Любительский (одноголосый) piratbit.org

Переломный момент через торрент piratbit.org

Размер: 1.46 GB | Добавлен: 5 лет 9 мес. назад | Торрент скачан:123 раза
Смотреть онлайн Переломный момент | Скачать    Ребята, помогите собрать деньги на оплату серверов!!!

20-02-2016 18:55 Переломный момент Скачать торрент  


Переломный момент / The Gamechangers


ИНФОРМАЦИЯ:
Год выпуска:2015
Страна: Великобритания
Жанр: драма, биография
Продолжительность: 01:28:42
Перевод: Любительский (одноголосый)(Lord32x Studio)
Режиссер: Оуэн Харрис

В Ролях:


Билл Пэкстон (Jack Thompson), Дэниэл Рэдклифф (Sam Houser), Джозеф Демпси (Jamie King), Райан Гейдж (Jounalist / Presenter / Crowd, озвучка), Алекс МакГрегор (Bridjet), Ник Борэйни (Doug Lowenstein), Джей Бенедикт (Reporter, озвучка), Деметри Горицас (US Radio DJ, озвучка), Лекс Кинг (Hillary Clinton's PA), Шеннон Эсра (Jen Kolbe), Джеймс Александр (Tom Masters), Йен Кейр Аттард (Dan Houser)

Описание:
Фильм рассказывает о юристе из Майами Джеке Томпсоне, который всеми силами стремился добиться запрета видеоигры Grand Theft Auto, но в итоге в 2008 году лишился адвокатской лицензии за недопустимое поведение.

  • Мировая премьера:15 сентября 2015

    ТЕХ.ДАННЫЕ:
    Качество: WEBRip
    Формат: AVI
    Видео: XviD, 720x304 (2.35:1), 2066 kbps, 25 fps, 0,378 bpp
    Аудио: AC3 / 2.0 / 48 kHz / 192 kbps / 16 bit

    Цитата:

    звучивание: Любительский одноголосый (Lord32x Studio)
    Состав дикторов: Lord32x
    Сериал перевёл: Melancholic_Kun
    Релиз-группа: Lord32x. Озвучивание фильмов при содружестве с релиз-группой KinoRay


    General
    Complete name : D:\Торенты\KinoRay.The Gamechangers.2015.WEBRip.1500MB.Lord32x.avi
    Format : AVI
    Format/Info : Audio Video Interleave
    File size : 1.46 GiB
    Duration : 1h 28mn
    Overall bit rate : 2 361 Kbps
    Writing application : VirtualDubMod 1.5.10.3 | www.virtualdub-fr.org || (build 2550/release)
    Writing library : VirtualDubMod build 2550/release

    Video
    ID : 0
    Format : MPEG-4 Visual
    Format profile : Advanced Simple@L5
    Format settings, BVOP : 1
    Format settings, QPel : No
    Format settings, GMC : No warppoints
    Format settings, Matrix : Default (H.263)
    Codec ID : XVID
    Codec ID/Hint : XviD
    Duration : 1h 28mn
    Bit rate : 2 066 Kbps
    Width : 720 pixels
    Height : 304 pixels
    Display aspect ratio : 2.35:1
    Frame rate : 25.000 fps
    Color space : YUV
    Chroma subsampling : 4:2:0
    Bit depth : 8 bits
    Scan type : Progressive
    Compression mode : Lossy
    Bits/(Pixel*Frame) : 0.378
    Stream size : 1.28 GiB (88%)
    Writing library : XviD 1.2.1 (UTC 2008-12-04)

    Audio
    ID : 1
    Format : AC-3
    Format/Info : Audio Coding 3
    Mode extension : CM (complete main)
    Codec ID : 2000
    Duration : 1h 28mn
    Bit rate mode : Constant
    Bit rate : 192 Kbps
    Channel(s) : 2 channels
    Channel positions : Front: L R
    Sampling rate : 48.0 KHz
    Bit depth : 16 bits
    Compression mode : Lossy
    Stream size : 122 MiB (8%)
    Alignment : Split accross interleaves
    Скриншоты:

    © Оформление by .::Ворон::.
    piratbit.org
    !Ворон писал(а):

    Без рекламы.



  • Скачать Переломный момент через торрент https://pic1.kartinco.top/images/61/ordi9.jpg Скачать, смотреть онлайн Переломный момент бесплантно в хорошем качестве Описание: Фильм рассказывает о юристе из Майами Джеке Томпсоне, который всеми силами стремился добиться запрета видеоигры Grand Theft Auto, ... 8.2 10 5
    Торрент: Зарегистрирован [2016-02-20 18:55] · скачан: 123 раз
    Статус: T временная
    Размер: 1.46 GB
    Как cкачать? Как скачать Переломный момент через торрент | UTorrent

    28-11-2019 20:33  

    Отключить всю рекламу на сайте

    21-02-2016 08:59 Переломный момент Скачать торрент  

    Гад какой этот Джек... piratbit.org



    21-02-2016 18:28 Переломный момент Скачать торрент  

    ха помню был такой чудик, спасибо посмотрим.piratbit.org



    01-03-2016 08:15 Переломный момент Скачать торрент  

    ребенок с бородой чес словоpiratbit.org



      Дорогой пользователь! Огромная просьба, поблагодарите релизера, оцените раздачу и оставьте свои комментарий, если Вы скачали Переломный момент через торрент бесплатно!
      Комментировать посты могут только пользователи прошедшие не сложную регистрацию
      Показать сообщения:    

      Переломный момент через торрент
      Скачать бесплатно Переломный момент
      Переломный момент скачать торрент
      Переломный момент смотреть онлайн
      Cкачать фильм Переломный момент бесплатно
      Переломный момент скачать торрент в хорошем качестве
      Переломный момент смотреть онлайн бесплатно в хорошем качестве


      Вы не можете начинать темы
      Вы не можете отвечать на сообщения
      Вы не можете редактировать свои сообщения
      Вы не можете удалять свои сообщения
      Вы не можете голосовать в опросах
      Вы не можете прикреплять файлы к сообщениям
      Вы можете скачивать файлы