1 сезон

3 сезон

iTunes

1

iTunes

DUB Netflix

iTunes

13

1 сезон

RePack

30

Deluxe

pack

Легкие деньги

ВАЖНО

ИГРА 18+

pack

RePack

MK11

RePack

jed

RePack

fifa19

RePack

RDR2

RePack

NEED FOR SPEED™ PAYBACK

4 сезон

9 сезон

Бесстыжие 9 сезон

Все сериалы

все сериалы на PB.wtf

RePack

FAR CRY 5

Anonymous, добрый день, мы не успеваем до 1 числа собрать деньги на оплату серверов, помогите нам пожалуйста в это трудное время. В качестве благодарности мы отключим Вам всю рекламу на сайте (укажите свой ник в строку Ваше имя)!

×
  
Magnet ссылка

Француз / Un Français (Дьястем) [2016, Драма, HDRip] MVO piratbit.org

Француз через торрент piratbit.org

Размер: 1.45 GB | Добавлен: 5 лет 3 мес. назад | Торрент скачан:741 раз
Скачать  

21-02-2016 22:06 Француз Скачать торрент  

Француз / Un Français

Год выпуска » 2015
Страна » Франция
Жанр » Драма
Продолжительность » 01:37:11
Перевод » Любительское (многоголосное) [Студия "Paradox & Omskbird records"]
Субтитры » Нет

В ролях
» Элбан Ленуар, Samuel Jouy, Поль Ами, Olivier Chenille, Джинн Роза, Патрик Пино, Lucie Debay, Рено Леба, Бландин Пелиссье, Алекс Мартин


Режиссёр
» Дьястем

» Марко — настоящий скинхед. Вместе со своими приятелями, Брагетом, Гран-Ги и Марвеном, он дубасит арабов и расклеивает плакаты ультраправых. Это продолжается до тех пор, пока он не начинает чувствовать, что вся эта ненависть улетучилась. Но как избавиться от жестокости, злости и глупости, которая в нас живет? Это пример пути человека, который был подонком, но захотел исправиться.
• Качество » HDRip [Рип с BDRip 720p]
• Формат » AVI
• Видео кодек » XviD
• Аудио кодек » AC3
• Видео » MPEG-4 Visual,1680 kb/s, 720x304,24,000 кадра/сек
• Аудио » Русский (AC-3 / 6 ch / 448 kbps /16 bit )


Общее
Полное имя : C:\Users\DRON & LeXuZ\Desktop\FpaHLLy3.2015.L.HDRip.avi
Формат : AVI
Формат/Информация : Audio Video Interleave
Размер файла : 1,45 Гбайт
Продолжительность : 1 ч. 37 м.
Общий поток : 2138 Кбит/сек
Программа кодирования : VirtualDubMod 1.5.10.3 | www.virtualdub-fr.org || (build 2550/release)
Библиотека кодирования : VirtualDubMod build 2550/release

Видео
Идентификатор : 0
Формат : MPEG-4 Visual
Профиль формата : Advanced Simple@L5
Параметр BVOP формата : 1
Параметр QPel формата : Нет
Параметр GMC формата : Без точки перехода
Параметр матрицы формата : Выборочная
Идентификатор кодека : XVID
Идентификатор кодека/Подсказка : XviD
Продолжительность : 1 ч. 37 м.
Битрейт : 1680 Кбит/сек
Ширина : 720 пикселей
Высота : 304 пикселя
Соотношение сторон : 2,35:1
Частота кадров : 24,000 кадра/сек
Цветовое пространство : YUV
Субдискретизация насыщенности : 4:2:0
Битовая глубина : 8 бит
Тип развёртки : Прогрессивная
Метод сжатия : С потерями
Бит/(Пиксели*Кадры) : 0.320
Размер потока : 1,14 Гбайт (79%)
Библиотека кодирования : XviD 73

Аудио
Идентификатор : 1
Формат : AC-3
Формат/Информация : Audio Coding 3
Расширение режима : CM (complete main)
Параметр Endianness формата : Big
Идентификатор кодека : 2000
Продолжительность : 1 ч. 37 м.
Вид битрейта : Постоянный
Битрейт : 448 Кбит/сек
Каналы : 6 каналов
Расположение каналов : Front: L C R, Side: L R, LFE
Частота : 48,0 КГц
Битовая глубина : 16 бит
Метод сжатия : С потерями
Размер потока : 311 Мбайт (21%)
Выравнивание : Разделение по промежуткам
Продолжительность промежутка : 42 мс. (1,00 видеокадр)
Время предзагрузки промежутка : 500 мс.
скриншот   скриншот   скриншот   скриншот   скриншот   скриншот   скриншот   скриншот   скриншот  
piratbit.org
!schultz писал(а):

Присутствует реклама



Скачать Француз через торрент https://pic1.kartinco.top/images/10/qjilv.jpg Скачать фильм Француз через торрент бесплантно в хорошем качестве В ролях » Элбан Ленуар, Samuel Jouy, Поль Ами, Olivier Chenille, Джинн Роза, Патрик Пино, Lucie Debay, Рено Леба, Бландин Пелиссье, Алекс ... 8.3 10 24
Торрент: Зарегистрирован [2016-02-21 22:06] · скачан: 741 раз
Статус: T временная
Размер: 1.45 GB
Как cкачать? Как скачать Француз через торрент | UTorrent

% Раздел Тема Автор DL S | L
T Фильмы [HD 720p, 1080p] (Хороший звук DUB, MVO) [ 4.68 GB ] Француз / Un Français [2016 BDRip 720p] MVO $-DRON-$ Скачать
1 | 0


Последний раз редактировалось: $-DRON-$ (2016-02-22 19:23), всего редактировалось 2 раз(а)

28-11-2019 20:33  

Отключить всю рекламу на сайте

21-02-2016 22:57 Француз Скачать торрент  

В начале рекламы не обнаружил,так что вполне возможно ее нет piratbit.org



22-02-2016 05:43 Француз Скачать торрент  

спасибо, глянем!piratbit.org



22-02-2016 06:38 Француз Скачать торрент  

ну что ? кто смотрел как фильм, отпишитесьpiratbit.org



22-02-2016 08:20 Француз Скачать торрент  

Цитата:

Марко — настоящий скинхед.

Цитата:

который был подонком, но захотел исправиться.

Видимо эдакий французский Макаренко определивших способ педагогического переосмысления собственного сознания.
По описанию так евро толерантная муть для утешения снасилованых европейцев.piratbit.org



06-03-2016 15:03 Француз Скачать торрент  

не оченьpiratbit.org



13-03-2016 12:05 Француз Скачать торрент  

Хороший фильм!!!piratbit.org



03-04-2016 13:25 Француз Скачать торрент  

Ну если уж ХАН написал,что хороший фильм,то надо смотреть! piratbit.org



    Дорогой пользователь! Огромная просьба, поблагодарите релизера, оцените раздачу и оставьте свои комментарий, если Вы скачали Француз через торрент бесплатно! Внесите свою лепту в развитие PiratBit!
    Комментировать посты могут только пользователи прошедшие не сложную регистрацию
    Показать сообщения:    

    Француз через торрент
    Скачать бесплатно Француз
    Француз скачать торрент
    Француз смотреть онлайн
    Cкачать фильм Француз бесплатно
    Француз скачать торрент в хорошем качестве
    Француз смотреть онлайн бесплатно в хорошем качестве


    Вы не можете начинать темы
    Вы не можете отвечать на сообщения
    Вы не можете редактировать свои сообщения
    Вы не можете удалять свои сообщения
    Вы не можете голосовать в опросах
    Вы не можете прикреплять файлы к сообщениям
    Вы можете скачивать файлы