1 сезон

3 сезон

iTunes

1

iTunes

DUB Netflix

iTunes

13

1 сезон

RePack

30

Deluxe

pack

Легкие деньги

ВАЖНО

ИГРА 18+

pack

RePack

MK11

RePack

jed

RePack

fifa19

RePack

RDR2

RePack

NEED FOR SPEED™ PAYBACK

4 сезон

9 сезон

Бесстыжие 9 сезон

Все сериалы

все сериалы на PB.wtf

RePack

FAR CRY 5

Anonymous, добрый вечер, мы не успеваем до 1 числа собрать деньги на оплату серверов, помогите нам пожалуйста в это трудное время. В качестве благодарности мы отключим Вам всю рекламу на сайте (укажите свой ник в строку Ваше имя)!

×
  
Magnet ссылка

Интерны + Фильм о фильме 1-2 части / Сезон: 1 -14 / Серии: 1-280 из 280 (Максим Пежемский) [2010-2016, комедия, DVDRip, SATRip, WEB-DLRip] piratbit.org

Интерны + Фильм о фильме 1-2 части через торрент piratbit.org

Раздают: 3 [ 1 MB/s ]
Размер: 83.66 GB | Добавлен: 5 лет 3 мес. назад | Торрент скачан:329 раз
Скачать  

25-02-2016 19:36 Интерны + Фильм о фильме 1-2 части Скачать торрент  

Интерны (2010-2016) DVDRip/SATRip/WEB-DLRip


Год выпуска: 2010-2016
Страна: Россия
Жанр: комедия

Продолжительность: 00:25:00 серия
Перевод: Не требуется [Русский]
Режиссер: Максим Пежемский, Заур Болотаев, Милан Килибарда

Описание:
Жизнь обычной многопрофильной больницы - сплошная рутина. Ненормированный рабочий день, тяжелая, неблагодарная работа, а также инопланетяне, электрики, спивающийся венеролог, озабоченная медсестра, больной-эксгибиционист, ручная крыса, четыре интерна, которые все время расстраивают своего руководителя... Как Иван Охлобыстин в лице доктора Быкова справится со всей этой суетой?



Качество видео:
001-120 серии – DVDRip
121-204 серии - SATRip
205-224 серии - WEB-DLRip
225-280 серии - SATRip
Формат: AVI
Видео: DivX /Xvid, 720х416/720x400, ~1500-1800 Kbps
Аудио: AC3/MP3, 48.0 KHz, 2 ch, 128/192 Kbps, CBR

Код:

Общее
Полное имя                       : C:\Интерны. Сезон №1. Серия №001.avi
Формат                           : AVI
Формат/Информация                : Audio Video Interleave
Размер файла                     : 279 Мбайт
Продолжительность                : 25 м.
Общий поток                      : 1557 Кбит/сек
Программа кодирования            : VirtualDubMod 1.5.10.2 (build 2540/release)
Библиотека кодирования           : VirtualDubMod build 2540/release

Видео
Идентификатор                    : 0
Формат                           : MPEG-4 Visual
Профиль формата                  : Advanced Simple@L5
Параметр BVOP формата            : 1
Параметр QPel формата            : Нет
Параметр GMC формата             : Без точки перехода
Параметр матрицы формата         : Default (MPEG)
Идентификатор кодека             : XVID
Идентификатор кодека/Подсказка   : XviD
Продолжительность                : 25 м.
Битрейт                          : 1355 Кбит/сек
Ширина                           : 720 пикселей
Высота                           : 416 пикселей
Соотношение сторон               : 16:9
Частота кадров                   : 25,000 кадров/сек
Цветовое пространство            : YUV
Субдискретизация насыщенности    : 4:2:0
Битовая глубина                  : 8 бит
Тип развёртки                    : Прогрессивная
Метод сжатия                     : С потерями
Бит/(Пиксели*Кадры)              : 0.181
Размер потока                    : 243 Мбайт (87%)
Библиотека кодирования           : XviD 1.2.1 (UTC 2008-12-04)

Аудио
Идентификатор                    : 1
Формат                           : AC-3
Формат/Информация                : Audio Coding 3
Расширение режима                : CM (complete main)
Идентификатор кодека             : 2000
Продолжительность                : 25 м.
Вид битрейта                     : Постоянный
Битрейт                          : 192 Кбит/сек
Каналы                           : 2 канала
Расположение каналов             : Front: L R
Частота                          : 48,0 КГц
Битовая глубина                  : 16 бит
Метод сжатия                     : С потерями
Задержка видео                   : 24 мс.
Размер потока                    : 34,4 Мбайт (12%)
Выравнивание                     : Разделение по промежуткам
Продолжительность промежутка     : 40  мс. (1,00 видеокадр)
Время предзагрузки промежутка    : 500  мс.

Общее
Полное имя                       : C:\Интерны. Сезон №1. Серия №002.avi
Формат                           : AVI
Формат/Информация                : Audio Video Interleave
Размер файла                     : 296 Мбайт
Продолжительность                : 25 м.
Общий поток                      : 1648 Кбит/сек
Программа кодирования            : VirtualDubMod 1.5.10.2 (build 2540/release)
Библиотека кодирования           : VirtualDubMod build 2540/release

Видео
Идентификатор                    : 0
Формат                           : MPEG-4 Visual
Профиль формата                  : Advanced Simple@L5
Параметр BVOP формата            : 1
Параметр QPel формата            : Нет
Параметр GMC формата             : Без точки перехода
Параметр матрицы формата         : Default (MPEG)
Идентификатор кодека             : XVID
Идентификатор кодека/Подсказка   : XviD
Продолжительность                : 25 м.
Битрейт                          : 1447 Кбит/сек
Ширина                           : 720 пикселей
Высота                           : 416 пикселей
Соотношение сторон               : 16:9
Частота кадров                   : 25,000 кадров/сек
Цветовое пространство            : YUV
Субдискретизация насыщенности    : 4:2:0
Битовая глубина                  : 8 бит
Тип развёртки                    : Прогрессивная
Метод сжатия                     : С потерями
Бит/(Пиксели*Кадры)              : 0.193
Размер потока                    : 259 Мбайт (88%)
Библиотека кодирования           : XviD 1.2.1 (UTC 2008-12-04)

Аудио
Идентификатор                    : 1
Формат                           : AC-3
Формат/Информация                : Audio Coding 3
Расширение режима                : CM (complete main)
Идентификатор кодека             : 2000
Продолжительность                : 25 м.
Вид битрейта                     : Постоянный
Битрейт                          : 192 Кбит/сек
Каналы                           : 2 канала
Расположение каналов             : Front: L R
Частота                          : 48,0 КГц
Битовая глубина                  : 16 бит
Метод сжатия                     : С потерями
Задержка видео                   : 16 мс.
Размер потока                    : 34,4 Мбайт (12%)
Выравнивание                     : Разделение по промежуткам
Продолжительность промежутка     : 40  мс. (1,00 видеокадр)
Время предзагрузки промежутка    : 500  мс.

piratbit.org



Скачать Интерны + Фильм о фильме 1-2 части через торрент http://i74.fastpic.ru/big/2016/0225/32/67710f548d873d9f5943466548184832.jpg Скачать фильм Интерны + Фильм о фильме 1-2 части через торрент бесплантно в хорошем качестве Описание: Жизнь обычной многопрофильной больницы - сплошная рутина. Ненормированный рабочий день, тяжелая, неблагодарная работа, а также ... 9.5 10 22
Info! Золотая раздача, скачанное не засчитывается.
Торрент: Зарегистрирован [2016-02-25 19:36] · скачан: 329 раз
Статус: √ проверено
Размер: 83.66 GB
Как cкачать? Как скачать Интерны + Фильм о фильме 1-2 части через торрент | UTorrent



Последний раз редактировалось: den7z8 (2016-02-25 20:48), всего редактировалось 2 раз(а)

28-11-2019 20:33  

Отключить всю рекламу на сайте

25-02-2016 19:58 Интерны + Фильм о фильме 1-2 части Скачать торрент  

спасибо))piratbit.org



25-02-2016 20:00 Интерны + Фильм о фильме 1-2 части Скачать торрент  

den7z8 писал(а):

281 01. Интерны. История болезни (2012).avi 633 MB
282 02. Интерны. Полное обследование (2013).avi

piratbit.org



    Дорогой пользователь! Огромная просьба, поблагодарите релизера, оцените раздачу и оставьте свои комментарий, если Вы скачали Интерны + Фильм о фильме 1-2 части через торрент бесплатно! Внесите свою лепту в развитие PiratBit!
    Комментировать посты могут только пользователи прошедшие не сложную регистрацию
    Показать сообщения:    

    Интерны + Фильм о фильме 1-2 части через торрент
    Скачать бесплатно Интерны + Фильм о фильме 1-2 части
    Интерны + Фильм о фильме 1-2 части скачать торрент
    Интерны + Фильм о фильме 1-2 части смотреть онлайн
    Cкачать фильм Интерны + Фильм о фильме 1-2 части бесплатно
    Интерны + Фильм о фильме 1-2 части скачать торрент в хорошем качестве
    Интерны + Фильм о фильме 1-2 части смотреть онлайн бесплатно в хорошем качестве


    Вы не можете начинать темы
    Вы не можете отвечать на сообщения
    Вы не можете редактировать свои сообщения
    Вы не можете удалять свои сообщения
    Вы не можете голосовать в опросах
    Вы не можете прикреплять файлы к сообщениям
    Вы можете скачивать файлы