Лицензия

MVO

1

1 сезон

Лицензия

Лицензия

13

MVO

1 сезон

Deluxe Edition

pack

Рекомендуем

30

Repack

ВАЖНО

ВАЖНО

Ghostwire

RePack

jed

RePack

fifa19

RePack

RDR2

RePack

NEED FOR SPEED™ PAYBACK

RePack

Кинопоиск HD

 Острые козырьки 6 сезон

6 сезон

FAR CRY 6

RePack

Лицензия

MVO

1

1 сезон

1 сезон

Лицензия

  

Волки и овцы (Владимир Сухобоков) [1953, СССР, драма, комедия, DVDRip-AVC от AVP Studio]

Волки и овцы через торрент piratbit.org

Размер: 2.17 GB | Добавлен: 6 лет 7 мес. назад | Торрент скачан:39 раз
Смотреть онлайн Волки и овцы | Скачать   

26-02-2016 08:30 Волки и овцы Скачать торрент  

Волки и овцы
Страна: СССР
Производство: К/ст им.Горького

Жанр: драма, комедия
Год выпуска: 1953
Продолжительность: 02:53:07

Перевод: Не требуется
Cубтитры: нет
Оригинальная аудиодорожка: русский

Режиссер: Владимир Сухобоков

В ролях:
Вера Пашенная, Игорь Ильинский, Татьяна Еремеева, Елена Шатрова, Варвара Рыжова, Николай Светловидов, Борис Телегин, Владимир Владиславский, Дмитрий Павлов...
Полный список актёров

Описание:
Фильм-спектакль Государственного академического Малого театра по пьесе А.Н. Островского.
Провинциальная помещица Мурзавецкая, ханжа, скрывающаяся под маской благочестия и добродетели, хочет прибрать к рукам состояние богатой вдовы Купавиной. Для этого она решает женить на молодой вдове своего беспутного и слабовольного племянника. Но приехавший из столицы помещик Беркутов разрушает планы Мурзавецкой. Он входит в доверие к Купавиной и женится на молодой вдове.

Источник: DVD9 R5
Качество видео: DVDRip-AVC
Формат видео: MKV

Видео: 696->762x572 (4:3), 25 fps, H264 ~ 1601 kbps avg, 0.161 bit/pixel
Аудио: 48 kHz, Dolby Digital AC3 2.0, 192 kbps

Раздача от:
Общее
Полное имя : Volki.i.ovcy.1953.DVDRip-AVC_[New-team]_by_AVP_Studio.mkv
Формат : Matroska
Версия формата : Version 2
Размер файла : 2,17 Гбайт
Продолжительность : 2 ч. 53 м.
Общий поток : 1795 Кбит/сек
Дата кодирования : UTC 2016-02-24 18:15:13
Программа кодирования : mkvmerge v6.1.0 ('Old Devil') built on Mar 4 2013 09:10:42
Библиотека кодирования : libebml v1.3.0 + libmatroska v1.4.0

Видео
Идентификатор : 1
Формат : AVC
Формат/Информация : Advanced Video Codec
Профиль формата : High@L4.1
Параметр CABAC формата : Да
Параметр ReFrames формата : 10 кадров
Идентификатор кодека : V_MPEG4/ISO/AVC
Продолжительность : 2 ч. 53 м.
Битрейт : 1601 Кбит/сек
Ширина : 696 пикселей
Высота : 572 пикселя
Соотношение сторон : 4:3
Режим частоты кадров : Постоянный
Частота кадров : 25,000 кадров/сек
Цветовое пространство : YUV
Субдискретизация насыщенности : 4:2:0
Битовая глубина : 8 бит
Тип развёртки : Прогрессивная
Бит/(Пиксели*Кадры) : 0.161
Размер потока : 1,89 Гбайт (87%)
Библиотека кодирования : x264 core 130 r2273 b3065e6
Настройки программы : cabac=1 / ref=10 / deblock=1:-2:-1 / analyse=0x3:0x113 / me=umh / subme=10 / psy=1 / psy_rd=1.00:0.00 / mixed_ref=1 / me_range=32 / chroma_me=1 / trellis=2 / 8x8dct=1 / cqm=0 / deadzone=21,11 / fast_pskip=1 / chroma_qp_offset=-2 / threads=6 / lookahead_threads=1 / sliced_threads=0 / nr=0 / decimate=0 / interlaced=0 / bluray_compat=0 / constrained_intra=0 / bframes=8 / b_pyramid=2 / b_adapt=2 / b_bias=0 / direct=3 / weightb=1 / open_gop=0 / weightp=2 / keyint=250 / keyint_min=25 / scenecut=40 / intra_refresh=0 / rc=2pass / mbtree=0 / bitrate=1601 / ratetol=1.0 / qcomp=0.60 / qpmin=0 / qpmax=69 / qpstep=4 / cplxblur=20.0 / qblur=0.5 / ip_ratio=1.40 / pb_ratio=1.30 / aq=1:1.00
Default : Да
Forced : Нет

Аудио
Идентификатор : 2
Формат : AC-3
Формат/Информация : Audio Coding 3
Расширение режима : CM (complete main)
Параметр Endianness формата : Big
Идентификатор кодека : A_AC3
Продолжительность : 2 ч. 53 м.
Вид битрейта : Постоянный
Битрейт : 192 Кбит/сек
Каналы : 2 канала
Расположение каналов : Front: L R
Частота : 48,0 КГц
Частота кадров : 31,250 кадров/сек (1536 spf)
Метод сжатия : С потерями
Размер потока : 238 Мбайт (11%)
Default : Да
Forced : Нет



Скачать Волки и овцы через торрент http://s019.radikal.ru/i623/1602/79/d6df883ee5a5.png Скачать, смотреть онлайн Волки и овцы бесплантно в хорошем качестве Описание:Фильм-спектакль Государственного академического Малого театра по пьесе А.Н. Островского.Провинциальная помещица Мурзавецкая, ... 10 10 1
Info! Золотая раздача, скачанное не засчитывается.
Торрент: Зарегистрирован [2016-02-26 08:30] · скачан: 39 раз
Статус: √ проверено
Размер: 2.17 GB
Как cкачать? Как скачать Волки и овцы через торрент | UTorrent

% Раздел Тема Автор DL S | L
Кино СССР [ 1.46 GB ] Волки и овцы | | DVDRip от AVP Studio AVP Studio Скачать
1 | 0
Кино СССР [ 2.18 GB ] Волки и овцы | | DVDRip от AVP Studio AVP Studio Скачать
1 | 0

28-11-2019 20:33  

Отключить вcю реклaмy на сайте

    Дорогой пользователь! Огромная просьба, поблагодарите релизера, оцените раздачу и оставьте свои комментарий, если Вы скачали Волки и овцы через торрент бесплатно!!
    Комментировать посты могут только пользователи прошедшие не сложную регистрацию
    Показать сообщения:    


    Волки и овцы через торрент
    Скачать бесплатно Волки и овцы
    Волки и овцы скачать торрент
    Волки и овцы смотреть онлайн
    Cкачать фильм Волки и овцы бесплатно
    Волки и овцы скачать торрент в хорошем качестве
    Волки и овцы смотреть онлайн бесплатно в хорошем качестве
    Вы не можете начинать темы
    Вы не можете отвечать на сообщения
    Вы не можете редактировать свои сообщения
    Вы не можете удалять свои сообщения
    Вы не можете голосовать в опросах
    Вы не можете прикреплять файлы к сообщениям
    Вы можете скачивать файлы