Ссылка на приватное зеркало всего за 1$. Внимание количество ограничено!!!

iTunes

iTunes

iTunes

1

iTunes

iTunes

iTunes

iTunes

iTunes

30
pack

$ от Little Big

ВАЖНО

!!Акция!!

Alien_RageХит недели

RePack

Resident Evil 21

ИГРА 18+

pack

RePack

jed

!!Акция!!

Alien_Rage

RePack

fifa19

RePack

Assassins Creed: Odyssey

RePack

NEED FOR SPEED™ PAYBACK

4 сезон

9 сезон

Бесстыжие 9 сезон

Все сериалы

все сериалы на PB.wtf

RePack

FAR CRY 5
  

Дневник баскетболиста / The Basketball Diaries (Скотт Кэлверт) [1995 г., Драма, автобиография, BDRip] [720p] 2xMVO (R5, НТВ) + Original + Sub (rus, eng) piratbit.org

Дневник баскетболиста через торрент piratbit.org

Размер: 5.76 GB | Добавлен: 9 лет назад | Торрент скачан:337 раз
Скачать  

04-08-2010 16:30 Дневник баскетболиста Скачать торрент  

Дневник баскетболиста / The Basketball Diaries

Год выпуска: 1995
Страна: США, New Line Cinema
Жанр: Драма, автобиография
Продолжительность: 01:41:59
Перевод: Профессиональный (многоголосый, закадровый)
Русские субтитры: есть

Режиссер: Скотт Кэлверт /Scott Kalvert/

В ролях: Леонардо ДиКаприо /Leonardo DiCaprio/, Бруно Керби /Bruno Kirby/, Лоррэйн Бракко /Lorraine Bracco/, Эрни Хадсон /Ernie Hudson/, Пэтрик МакГоу /Patrick McGaw/, Марк Уолберг /Mark Wahlberg/, Рой Купер /Roy Cooper/, Винсент Пасторе /Vincent Pastore/

Описание: Фильм поставлен по действительной истории, описанной в автобиографическом романе Джима Кэрролла. Рассказ ведется от лица главного героя и автора «Дневников баскетболиста», шестнадцатилетнего подростка, играющего в эту игру и пишущего хорошие стихи. Он и его друзья увлекаются наркотиками, что приводит к их постепенному падению и деградации, показанной с предельным натурализмом, без всякой романтики и оправданий. Мальчишке, попавшему в тюрьму, ...










«Дневник баскетболиста» (англ. The Basketball Diaries) — кинофильм режиссера Скотта Кэлверта, снятый в 1995 году по автобиографическому роману Джима Кэрролла. Не рекомендуется просмотр детям и подросткам моложе 16 лет (фильм содержит нецензурную лексику и крайне натуралистичные сцены).




Интересные факты:
* Фильм включен в список запрещённых к распространению в Республике Беларусь.
* На роль Джима Кэррола был утвержден Ривер Феникс, который, однако, умер от передозировки наркотиков до начала съемок.


Качество: BDRip
Формат: mkv
Видео кодек: H.264
Аудио кодек: AC3, DTS
Видео: 1280x720 at 23.976 fps, x264@L4.1, ~5682 kbps avg
Аудио#1: Russian: 48 kHz, AC3, 3/2 (L,C,R,l,r) + LFE ch, ~448.00 kbps avg |Многоголосый закадровый, R5|
Аудио#2: Russian: 48 kHz, AC3, 3/2 (L,C,R,l,r) + LFE ch, ~448.00 kbps avg |Многоголосый закадровый, НТВ+|
Аудио#3: English: 48 kHz/16-bit, DTS-HD MA 5.1, ~2216.00 kbps avg
Субтитры: Russian, English





Complete name : The.Basketball.Diaries.1995.720p.BluRay.2xRus.Eng.HDCLUB.mkv
Format : Matroska
File size : 5.76 GiB
Duration : 1h 41mn
Overall bit rate : 8 083 Kbps
Movie name : The Basketball Diaries (1995) - Release for HDCLUB
Encoded date : UTC 2010-04-19 07:29:58
Writing application : mkvmerge v3.3.0 ('Language') built on Mar 24 2010 14:59:24
Writing library : libebml v0.8.0 + libmatroska v0.9.0
Video #1
ID : 1
Format : AVC
Format/Info : Advanced Video Codec
Format profile : High@L4.1
Format settings, CABAC : Yes
Format settings, ReFrames : 7 frames
Muxing mode : Container profile=Unknown@4.1
Codec ID : V_MPEG4/ISO/AVC
Duration : 1h 41mn
Bit rate : 5 517 Kbps
Nominal bit rate : 5 682 Kbps
Width : 1 280 pixels
Height : 720 pixels
Display aspect ratio : 16:9
Frame rate : 23.976 fps
Resolution : 8 bits
Colorimetry : 4:2:0
Scan type : Progressive
Bits/(Pixel*Frame) : 0.250
Stream size : 3.93 GiB (68%)
Title : Release for HDCLUB
Writing library : x264 core 93 r1538 bd72d46
Encoding settings : cabac=1 / ref=8 / deblock=1:-3:-3 / analyse=0x3:0x133 / me=umh / subme=10 / psy=1 / psy_rd=1.00:0.00 / mixed_ref=1 / me_range=32 / chroma_me=1 / trellis=2 / 8x8dct=1 / cqm=0 / deadzone=21,11 / fast_pskip=0 / chroma_qp_offset=-2 / threads=12 / sliced_threads=0 / nr=0 / decimate=1 / interlaced=0 / constrained_intra=0 / bframes=8 / b_pyramid=1 / b_adapt=2 / b_bias=0 / direct=3 / wpredb=1 / wpredp=2 / keyint=250 / keyint_min=25 / scenecut=40 / intra_refresh=0 / rc_lookahead=0 / rc=2pass / mbtree=0 / bitrate=5682 / ratetol=1.0 / qcomp=0.60 / qpmin=10 / qpmax=51 / qpstep=4 / cplxblur=20.0 / qblur=0.5 / vbv_maxrate=50000 / vbv_bufsize=62500 / ip_ratio=1.40 / pb_ratio=1.30 / aq=1:0.80 / nal_hrd=none
Language : English
Audio #2
ID : 2
Format : AC-3
Format/Info : Audio Coding 3
Codec ID : A_AC3
Duration : 1h 41mn
Bit rate mode : Constant
Bit rate : 448 Kbps
Channel(s) : 6 channels
Channel positions : Front: L C R, Surround: L R, LFE
Sampling rate : 48.0 KHz
Stream size : 327 MiB (6%)
Title : AC3 5.1 @ 448 kbps - Многоголосый закадровый, R5
Language : Russian
Audio #3
ID : 3
Format : AC-3
Format/Info : Audio Coding 3
Codec ID : A_AC3
Duration : 1h 41mn
Bit rate mode : Constant
Bit rate : 448 Kbps
Channel(s) : 6 channels
Channel positions : Front: L C R, Surround: L R, LFE
Sampling rate : 48.0 KHz
Stream size : 327 MiB (6%)
Title : AC3 5.1 @ 448 kbps - Многоголосый закадровый, НТВ+
Language : Russian
Audio #4
ID : 4
Format : DTS
Format/Info : Digital Theater Systems
Codec ID : A_DTS
Duration : 1h 41mn
Bit rate mode : Constant
Bit rate : 1 510 Kbps
Channel(s) : 6 channels
Channel positions : Front: L C R, Surround: L R, LFE
Sampling rate : 48.0 KHz
Resolution : 16 bits
Stream size : 1.08 GiB (19%)
Title : DTS 5.1 @ 1536 kbps
Language : English
Text #5
ID : 5
Format : UTF-8
Codec ID : S_TEXT/UTF8
Codec ID/Info : UTF-8 Plain Text
Language : Russian
Text #6
ID : 6
Format : UTF-8
Codec ID : S_TEXT/UTF8
Codec ID/Info : UTF-8 Plain Text
Language : English
piratbit.org



Скачать Дневник баскетболиста через торрент http://piratbit.in.ua/d69d50e434b347482f2093bfc4fbfe8a.jpg Скачать фильм Дневник баскетболиста через торрент бесплантно в хорошем качестве Описание: Фильм поставлен по действительной истории, описанной в автобиографическом романе Джима Кэрролла. Рассказ ведется от лица главного ... 9.5 10 4
Info! Золотая раздача, скачанное не засчитывается.
Торрент: Зарегистрирован [2010-08-04 16:30] · скачан: 337 раз
Статус: √ проверено
Размер: 5.76 GB
Как cкачать? Как скачать Дневник баскетболиста через торрент | qTorrent

% Раздел Тема Автор DL S | L
Фильмы [HD 720p, 1080p] (Хороший звук DUB, MVO) [ 5.62 GB ] Дневник баскетболиста / The Basketball Diaries [1995 биография BDRip 720p by msltel] 2 x MVO msltel Скачать
1 | 0
Фильмы [HD 720p, 1080p] (Хороший звук DUB, MVO) [ 13.27 GB ] Дневник баскетболиста / The Basketball Diaries [1995 биография BDRip 1080p by msltel] 2 x MVO msltel Скачать
1 | 0
Фильмы с авторской озвучкой [ 2.1 GB ] Дневник баскетболиста / The Basketball Diaries [1995 биография BDRip] 3x [AVO] killermax2013 Скачать
1 | 0


Последний раз редактировалось: diletant (2010-08-04 16:47), всего редактировалось 2 раз(а)

28-11-2019 20:33  

Отключить всю рекламу на сайте

04-08-2010 16:36 Дневник баскетболиста Скачать торрент  

Хороший фильм)piratbit.org



04-08-2010 16:40 Дневник баскетболиста Скачать торрент  

аха, тоже понравился)piratbit.org



04-08-2010 18:01 Дневник баскетболиста Скачать торрент  

таких фильмов уже не выпускают...piratbit.org



    Дорогой пользователь! Огромная просьба, поблагодарите релизера, оцените раздачу и оставьте свои комментарий, если Вы скачали Дневник баскетболиста через торрент бесплатно! Внесите свою лепту в развитие PiratBit!
    Комментировать посты могут только пользователи прошедшие не сложную регистрацию
    Показать сообщения:    

    Дневник баскетболиста через торрент
    Скачать бесплатно Дневник баскетболиста
    Дневник баскетболиста скачать торрент
    Дневник баскетболиста смотреть онлайн
    Cкачать фильм Дневник баскетболиста бесплатно
    Дневник баскетболиста скачать торрент в хорошем качестве
    Дневник баскетболиста смотреть онлайн бесплатно в хорошем качестве


    Вы не можете начинать темы
    Вы не можете отвечать на сообщения
    Вы не можете редактировать свои сообщения
    Вы не можете удалять свои сообщения
    Вы не можете голосовать в опросах
    Вы не можете прикреплять файлы к сообщениям
    Вы можете скачивать файлы