Присоединяйтесь к нам в Telegram!, здесь всегда актуальный адрес сайта, оперативная поддержка и многое другое!!

>

5.9

iTunes

7.4

iTunes

9.4

1 сезон

1

7.4

2 сезон

7.2

iTunes

7.3

1 сезон

13

6.1

iTunes

8.3

Пиратка

30

ULTIMATE

pack

9.9

Лицензия

ВАЖНО

ИГРА 18+

pack

7.3

RePack

MK11

7.7

RePack

jed

7.8

RePack

fifa19

8.5

RePack

RDR2

RePack

NEED FOR SPEED™ PAYBACK

5 сезон

9 сезон

Бесстыжие 9 сезон

Все сериалы

все сериалы на PB.wtf

RePack

FAR CRY 5

Anonymous, доброй ночи, мы катастрофически не успеваем собрать деньги на оплату серверов, помогите нам пожалуйста 5,10,15р., для нас важна любая помощь . В качестве благодарности мы отключим Вам всю рекламу на сайте (укажите свой ник в строку Ваше имя)!

×
  
Magnet ссылка

Проклятие ведьминого дерева / Curse of the Witching Tree (Джеймс Кроу) [2015, ужасы, DVDRip, Любительский (двухголосый) [2D] без рекламы piratbit.org

Проклятие ведьминого дерева через торрент piratbit.org

Размер: 1.38 GB | Добавлен: 5 лет 9 мес. назад | Торрент скачан:452 раза
Смотреть онлайн Проклятие ведьминого дерева | Скачать    Ребята, помогите собрать деньги на оплату серверов!!!

28-02-2016 10:29 Проклятие ведьминого дерева Скачать торрент  


Проклятие ведьминого дерева / Curse of the Witching Tree


ИНФОРМАЦИЯ:
Год выпуска:2015
Страна: Великобритания
Жанр: ужасы
Продолжительность: 01:42:37
Перевод: Любительский (двухголосый) [2D]
Режиссер: Джеймс Кроу

В Ролях:


Сара Роуз Дентон (Amber Thorson), Lucy Jane Clarvis (Emma Thorson), Lawrence Weller (Jake Thorson), Чарли Бонд (Nurse), Viv Bonney (Mother Creedon), Кэролайн Болтон (Eva), Даниэль Бакс (Isobel Redwood), Rob Byrne (Nurse 2), Джон Кэмплинг (Father Flanagan), Frankie James Danton (Plague Child), Oliver Ebsworth (Plague Child), Jayne Friend (Newsreader)

Описание:
Семья переезжает на новую ферму, где, по слухам, жила ведьма, убивашая собственного сына и еще 9х детей. В то время как отец семейства лежит в коме, а жена и дети надеются на его возвращение к ним, в доме начинает пробуждаться древнее зло, потревоженное шуточным спиритическим сеансом, который провели хулиганы в том самом сарае, где ведьма совершала свои страшные злодеяния...

  • Мировая премьера:18 мая 2015

    ТЕХ.ДАННЫЕ:
    Качество: DVDRip
    Формат: AVI
    Видео: XviD, 720x304 (2.35:1), 1727 kbps, 23,976 fps, 0,329 bpp
    Аудио: AC3 / 2.0 / 48 kHz / 192 kbps / 16 bit


    General
    Complete name : D:\Торенты\Curse.of.the.Witching.Tree.DVDRip.avi
    Format : AVI
    Format/Info : Audio Video Interleave
    File size : 1.38 GiB
    Duration : 1h 42mn
    Overall bit rate : 1 928 Kbps
    Writing application : VirtualDubMod 1.5.10.3 (build 2550/release)
    Writing library : VirtualDubMod build 2550/release

    Video
    ID : 0
    Format : MPEG-4 Visual
    Format profile : Advanced Simple@L5
    Format settings, BVOP : 2
    Format settings, QPel : No
    Format settings, GMC : No warppoints
    Format settings, Matrix : Default (H.263)
    Muxing mode : Packed bitstream
    Codec ID : XVID
    Codec ID/Hint : XviD
    Duration : 1h 42mn
    Bit rate : 1 727 Kbps
    Width : 720 pixels
    Height : 304 pixels
    Display aspect ratio : 2.35:1
    Frame rate : 23.976 fps
    Color space : YUV
    Chroma subsampling : 4:2:0
    Bit depth : 8 bits
    Scan type : Progressive
    Compression mode : Lossy
    Bits/(Pixel*Frame) : 0.329
    Stream size : 1.24 GiB (90%)
    Writing library : XviD 73

    Audio
    ID : 1
    Format : AC-3
    Format/Info : Audio Coding 3
    Mode extension : CM (complete main)
    Codec ID : 2000
    Duration : 1h 42mn
    Bit rate mode : Constant
    Bit rate : 192 Kbps
    Channel(s) : 2 channels
    Channel positions : Front: L R
    Sampling rate : 48.0 KHz
    Bit depth : 16 bits
    Compression mode : Lossy
    Stream size : 141 MiB (10%)
    Alignment : Split accross interleaves
    Interleave, duration : 42 ms (1.00 video frame)
    Interleave, preload duration : 500 ms
    Скриншоты:

    © Оформление by .::Ворон::.
    piratbit.org



  • Скачать Проклятие ведьминого дерева через торрент https://pic1.kartinco.top/images/61/ordi9.jpg Скачать, смотреть онлайн Проклятие ведьминого дерева бесплантно в хорошем качестве Описание: Семья переезжает на новую ферму, где, по слухам, жила ведьма, убивашая собственного сына и еще 9х детей. В то время как отец ... 8.4 10 13
    Торрент: Зарегистрирован [2016-02-28 10:29] · скачан: 452 раз
    Статус: T временная
    Размер: 1.38 GB
    Как cкачать? Как скачать Проклятие ведьминого дерева через торрент | UTorrent



    Последний раз редактировалось: Ворон (2016-02-28 19:39), всего редактировалось 1 раз

    28-11-2019 20:33  

    Отключить всю рекламу на сайте

    28-02-2016 11:24 Проклятие ведьминого дерева Скачать торрент  

    По скринам ,что-то не похоже на ужасы piratbit.org



    28-02-2016 11:30 Проклятие ведьминого дерева Скачать торрент  

    Они там, что весь фильм в ванной валяются.piratbit.org



    28-02-2016 11:33 Проклятие ведьминого дерева Скачать торрент  

    И снова тема сисег piratbit.org



    28-02-2016 11:54 Проклятие ведьминого дерева Скачать торрент  

    Linch писал(а):

    Они там, что весь фильм в ванной валяются.


    О том же подумал.piratbit.org



    28-02-2016 13:54 Проклятие ведьминого дерева Скачать торрент  

    Люблю бред..piratbit.org



    28-02-2016 17:29 Проклятие ведьминого дерева Скачать торрент  

    Ворон, со всем уважением, но "Емья переезжает на новую ферму".... piratbit.org
    !Ворон писал(а):

    Спасибо.



    28-02-2016 19:19 Проклятие ведьминого дерева Скачать торрент  

    Все нормально тема сисек раскрыта!piratbit.org



    29-02-2016 18:53 Проклятие ведьминого дерева Скачать торрент  

    Как фильм то? Смотреть можно?piratbit.org



    02-03-2016 09:40 Проклятие ведьминого дерева Скачать торрент  

    Сисечки в ванной - это уже что-то новое. Фильм точно новинка)piratbit.org



    03-03-2016 13:19 Проклятие ведьминого дерева Скачать торрент  

    ШЛЯПА полная!!!!!по 10-ти бальной шкале только 3 балла и те за Сисечки!! piratbit.org



      Дорогой пользователь! Огромная просьба, поблагодарите релизера, оцените раздачу и оставьте свои комментарий, если Вы скачали Проклятие ведьминого дерева через торрент бесплатно!
      Комментировать посты могут только пользователи прошедшие не сложную регистрацию
      Показать сообщения:    

      Проклятие ведьминого дерева через торрент
      Скачать бесплатно Проклятие ведьминого дерева
      Проклятие ведьминого дерева скачать торрент
      Проклятие ведьминого дерева смотреть онлайн
      Cкачать фильм Проклятие ведьминого дерева бесплатно
      Проклятие ведьминого дерева скачать торрент в хорошем качестве
      Проклятие ведьминого дерева смотреть онлайн бесплатно в хорошем качестве


      Вы не можете начинать темы
      Вы не можете отвечать на сообщения
      Вы не можете редактировать свои сообщения
      Вы не можете удалять свои сообщения
      Вы не можете голосовать в опросах
      Вы не можете прикреплять файлы к сообщениям
      Вы можете скачивать файлы