Доктор Стрэндж

Лицензия

Добыча

Дубляж

Дом дракона

1 сезон

Тор

Дубляж

В эфире

Дубляж

Там, где раки поют

MVO

Властелин колец

1 сезон

Ultimate

pack

Рекомендуем

30

Пиратка

ВАЖНО

ВАЖНО

Ghostwire

Пиратка

jed

RePack

nioh2

RePack

RDR2

RePack

NEED FOR SPEED™ PAYBACK

RePack

скачать торрент

Кинопоиск HD

Острые козырьки 6 сезон

6 сезон

FAR CRY 6

RePack

скачать торрент

Лицензия

скачать торрент

MVO

1

1 сезон

скачать торрент

1 сезон

скачать торрент

Лицензия

  

Крадущийся тигр, затаившийся дракон: Меч судьбы / Crouching Tiger, Hidden Dragon: Sword of Destiny (Юэнь Воо-пин) [2016 г., фэнтези, боевик, драма, приключения, WEB-DL 720p, Любительский (многоголосый)]

Крадущийся тигр, затаившийся дракон: Меч судьбы через торрент piratbit.org

Размер: 3.01 GB | Добавлен: 6 лет 8 мес. назад | Торрент скачан:570 раз
Смотреть онлайн | Скачать   

02-03-2016 07:20 Крадущийся тигр, затаившийся дракон: Меч судьбы Скачать торрент  

Крадущийся тигр затаившийся дракон: Меч судьбы / Crouching Tiger Hidden Dragon: Sword of Destiny
Год выпуска: 2016
Страна: США
Жанр: фэнтези, боевик, драма, приключения
Продолжительность: 01:40:27
Перевод: Любительский (многоголосый)

Режиссер: Юэнь Воо-пин
Продюссер: Дэвид Туэйтес, Харви Вайнштейн, Джефф Бетанкорт
Сценарий: Джон Фуско, Ду Лу Ван

Премьера в мире: 18 февраля 2016

IMDB 7.30 (44)


В ролях: Донни Ен, Мишель Йео, Гарри Шам мл., Джейсон Скотт Ли, Евгения Йуан, Жужу Чан, Крис Пэнг, Дэррил Квон, Роджер Йуан, Yoson An

Описание: История об утраченной любви, юной любви, легендарном мече и единственном шансе на спасение.

Доп. информация: Озвучивание: Любительское (многоголосное) [Parovoz Production]
Релиз без рекламы!

Качество: WEB-DL 720p
Формат: MKV
Видео кодек: AVC
Аудио кодек: AC3
Видео: AVC, 3653 Кбит/сек, 1280x544, 23.976 кадр/сек
Аудио#1: AC3, 192 Кбит/сек, 2 канала, 48 КГц - rus
Аудио#2: AC3, 448 Кбит/сек, 6 каналов, 48 КГц - eng





General
Unique ID : 242052359073286691645406195474884953852 (0xB61996B16E52B118A26979DE4CB786FC)
Complete name : D:\Proba\Crouching.Tiger.Hidden.Dragon.Sword.of.Destiny.2016.720p\Crouching.Tiger.Hidden.Dragon.Sword.of.Destiny.2016.720p .mkv
Format : Matroska
Format version : Version 4 / Version 2
File size : 3.01 GiB
Duration : 1h 40mn
Overall bit rate : 4 295 Kbps
Movie name : EVO
Encoded date : UTC 2016-03-02 06:59:41
Writing application : mkvmerge v8.9.0 ('Father Daughter') 64bit
Writing library : libebml v1.3.3 + libmatroska v1.4.4
DURATION : 01:40:27.488000000
NUMBER_OF_FRAMES : 188359
NUMBER_OF_BYTES : 144659712
_STATISTICS_WRITING_APP : mkvmerge v8.9.0 ('Father Daughter') 64bit
_STATISTICS_WRITING_DATE_UT : 2016-03-02 06:59:41
_STATISTICS_TAGS : BPS DURATION NUMBER_OF_FRAMES NUMBER_OF_BYTES

Video
ID : 1
Format : AVC
Format/Info : Advanced Video Codec
Format profile : High@L4.1
Format settings, CABAC : Yes
Format settings, ReFrames : 4 frames
Codec ID : V_MPEG4/ISO/AVC
Duration : 1h 40mn
Bit rate : 3 699 Kbps
Width : 1 280 pixels
Height : 544 pixels
Display aspect ratio : 2.35:1
Frame rate mode : Constant
Frame rate : 23.976 fps
Color space : YUV
Chroma subsampling : 4:2:0
Bit depth : 8 bits
Scan type : Progressive
Bits/(Pixel*Frame) : 0.222
Stream size : 2.50 GiB (83%)
Writing library : x264 core 130 r2273 b3065e6
Encoding settings : cabac=1 / ref=1 / deblock=1:0:0 / analyse=0x3:0x113 / me=hex / subme=2 / psy=1 / psy_rd=1.00:0.00 / mixed_ref=0 / me_range=16 / chroma_me=1 / trellis=0 / 8x8dct=1 / cqm=0 / deadzone=21,11 / fast_pskip=1 / chroma_qp_offset=0 / threads=6 / lookahead_threads=2 / sliced_threads=0 / nr=0 / decimate=1 / interlaced=0 / bluray_compat=0 / constrained_intra=0 / bframes=3 / b_pyramid=2 / b_adapt=1 / b_bias=0 / direct=1 / weightb=1 / open_gop=0 / weightp=1 / keyint=240 / keyint_min=24 / scenecut=40 / intra_refresh=0 / rc_lookahead=10 / rc=abr / mbtree=1 / bitrate=3699 / ratetol=1.0 / qcomp=0.60 / qpmin=0 / qpmax=69 / qpstep=4 / vbv_maxrate=62500 / vbv_bufsize=78125 / nal_hrd=none / ip_ratio=1.40 / aq=1:1.00
Language : English
Default : Yes
Forced : No
Color range : Limited
Color primaries : BT.709
Transfer characteristics : BT.709
Matrix coefficients : BT.709

Audio #1
ID : 2
Format : AC-3
Format/Info : Audio Coding 3
Mode extension : CM (complete main)
Format settings, Endianness : Big
Codec ID : A_AC3
Duration : 1h 40mn
Bit rate mode : Constant
Bit rate : 192 Kbps
Channel(s) : 2 channels
Channel positions : Front: L R
Sampling rate : 48.0 KHz
Compression mode : Lossy
Delay relative to video : 20ms
Stream size : 138 MiB (4%)
Language : Russian
Default : Yes
Forced : No

Audio #2
ID : 3
Format : AC-3
Format/Info : Audio Coding 3
Mode extension : CM (complete main)
Format settings, Endianness : Big
Codec ID : A_AC3
Duration : 1h 40mn
Bit rate mode : Constant
Bit rate : 448 Kbps
Channel(s) : 6 channels
Channel positions : Front: L C R, Side: L R, LFE
Sampling rate : 48.0 KHz
Compression mode : Lossy
Stream size : 322 MiB (10%)
Language : English
Default : No
Forced : No

Крадущийся тигр, затаившийся дракон: Меч судьбы скачать торрент




Скачать Крадущийся тигр, затаившийся дракон: Меч судьбы через торрент https://pic.kartinco.top/images/11/2e7mj.jpg Скачать, смотреть онлайн Крадущийся тигр, затаившийся дракон: Меч судьбы бесплантно в хорошем качестве Описание: История об утраченной любви, юной любви, легендарном мече и единственном шансе на спасение.Доп. информация: Озвучивание: ... 9.2 10 23
Info! Золотая раздача, скачанное не засчитывается.
Торрент: Зарегистрирован [2016-03-02 07:20] · скачан: 570 раз
Статус: T временная
Размер: 3.01 GB
Как cкачать? Как скачать Крадущийся тигр, затаившийся дракон: Меч судьбы через торрент | UTorrent

% Раздел Тема Автор DL S | L
T 3D Фильмы [ 12.72 GB ] Крадущийся тигр, затаившийся дракон: Меч судьбы в 3Д / Crouching Tiger, Hidden Dragon: Sword of Destiny 3D | MVO | 1080p, MVO serega768 Скачать
1 | 0
T Фильмы 2016 (Звук TS, Cam, VO, DVO) [ 1.45 GB ] Крадущийся тигр, затаившийся дракон: Меч судьбы / Crouching Tiger, Hidden Dragon: Sword of Destiny | voz Production | WEBRip, Любительское (многоголосное Russian Mafia Скачать
2 | 0
T Фильмы без перевода [ 2.88 GB ] Крадущийся тигр, затаившийся дракон: Меч судьбы / Crouching Tiger, Hidden Dragon: Sword of Destiny | | 720p, Оригинальный Userman4ik Скачать
1 | 0



Последний раз редактировалось: Userman4ik (2016-03-02 08:03), всего редактировалось 1 раз

28-11-2019 20:33  


Отключить вcю реклaмy на сайте, в т.ч. и в плеере онлайн просмотра!

02-03-2016 07:46 Крадущийся тигр, затаившийся дракон: Меч судьбы Скачать торрент  

Userman4ik, страну укажи. Да и рекомендую все намного проще)))
Flash Release - программа для автоматизации создания релизов



10-03-2016 04:52 Крадущийся тигр, затаившийся дракон: Меч судьбы Скачать торрент  

Снят неплохо но смысл немного туповат.



10-10-2016 19:48 Крадущийся тигр, затаившийся дракон: Меч судьбы Скачать торрент  

"Обожаю" пиратбит за то, что нихрена скачать нельзя, кроме школоло попсятины, да и то первые пару месяцев.



    Дорогой пользователь! Огромная просьба, поблагодарите релизера, оцените раздачу и оставьте свои комментарий, если Вы скачали Крадущийся тигр, затаившийся дракон: Меч судьбы через торрент бесплатно!!
    Комментировать посты могут только пользователи прошедшие не сложную регистрацию
    Показать сообщения:    


    Крадущийся тигр, затаившийся дракон: Меч судьбы через торрент
    Скачать бесплатно Крадущийся тигр, затаившийся дракон: Меч судьбы
    Крадущийся тигр, затаившийся дракон: Меч судьбы скачать торрент
    Крадущийся тигр, затаившийся дракон: Меч судьбы смотреть онлайн
    Cкачать фильм Крадущийся тигр, затаившийся дракон: Меч судьбы бесплатно
    Крадущийся тигр, затаившийся дракон: Меч судьбы скачать торрент в хорошем качестве
    Крадущийся тигр, затаившийся дракон: Меч судьбы смотреть онлайн бесплатно в хорошем качестве
    Вы не можете начинать темы
    Вы не можете отвечать на сообщения
    Вы не можете редактировать свои сообщения
    Вы не можете удалять свои сообщения
    Вы не можете голосовать в опросах
    Вы не можете прикреплять файлы к сообщениям
    Вы можете скачивать файлы
    Крадущийся тигр, затаившийся дракон: Меч судьбы / Crouching Tiger, Hidden Dragon: Sword of Destiny [2016 г., фэнтези, боевик, драма, приключения, WEB-DL 720p, Любительский ] смотреть онлайн, скачать торрент picoco.icu