Лицензия

MVO

1

1 сезон

Лицензия

Лицензия

13

MVO

1 сезон

Deluxe Edition

pack

Рекомендуем

30

Repack

ВАЖНО

ВАЖНО

Ghostwire

RePack

jed

RePack

fifa19

RePack

RDR2

RePack

NEED FOR SPEED™ PAYBACK

RePack

Кинопоиск HD

 Острые козырьки 6 сезон

6 сезон

FAR CRY 6

RePack

Лицензия

MVO

1

1 сезон

1 сезон

Лицензия

  

Враги (Тамара Родионова) [1953, СССР, драма, DVDRip от AVP Studio]

Враги через торрент piratbit.org

Размер: 2.18 GB | Добавлен: 6 лет 6 мес. назад | Торрент скачан:14 раз
Смотреть онлайн Враги | Скачать   

02-03-2016 08:19 Враги Скачать торрент  

Враги
Страна: СССР
Производство: Ленфильм

Жанр: драма
Год выпуска: 1953
Продолжительность: 02:28:25

Перевод: Не требуется
Cубтитры: нет
Оригинальная аудиодорожка: русский

Режиссер: Тамара Родионова

В ролях:
Василий Софронов, Елена Грановская, Николай Корн, Валентина Кибардина, Нина Ольхина, Иван Ефремов, Степан Пономаренко, Анна Никритина, Александр Соколов, Виталий Иллич, Виктор Чайников, Николай Дмитриев, Владислав Стржельчик, Александр Лариков, Борис Рыжухин, Евгений Горюнов, Евгений Иванов, Александра Фомина, Николай Семилетов, Павел Колобов, Иван Пальму, А. Москвин, Александр Чепурнов...
Полный список актёров

Описание:
Фильм-спектакль по одноименной пьесе М.Горького в постановке Ленинградского БДТ, режиссер спектакля - Наталья Рашевская.
Действие происходит накануне революции 1905 года. На фабрике Бардина стало особенно неспокойно. Директор фабрики, компаньон хозяина Скроботов, отвергает справедливые требования рабочих уволить жестокого мастера. В ответ на возмущение рабочих хозяева закрывают фабрику и вызывают солдат. Скроботов угрожает рабочим револьвером, и его убивают...

Источник: DVD9 R5
Качество видео: DVDRip
Формат видео: AVI

Видео: 688x512 (4:3), 25 fps, XviD ~ 1901 kbps avg, 0.216 bit/pixel
Аудио: 48 kHz, Dolby Digital AC3 2.0, 192 kbps

Раздача от:
Общее
Полное имя : Vragi.1953.DVDRip_[New-team]_by_AVP_Studio.avi
Формат : AVI
Формат/Информация : Audio Video Interleave
Профиль формата : OpenDML
Размер файла : 2,18 Гбайт
Продолжительность : 2 ч. 28 м.
Общий поток : 2105 Кбит/сек
Программа кодирования : VirtualDubMod 1.5.10.3 | www.virtualdub-fr.org || (build 2550/release)
Библиотека кодирования : VirtualDubMod build 2550/release

Видео
Идентификатор : 0
Формат : MPEG-4 Visual
Профиль формата : Advanced Simple@L5
Параметр BVOP формата : 1
Параметр QPel формата : Нет
Параметр GMC формата : Без точки перехода
Параметр матрицы формата : Выборочная
Идентификатор кодека : XVID
Идентификатор кодека/Подсказка : XviD
Продолжительность : 2 ч. 28 м.
Битрейт : 1901 Кбит/сек
Ширина : 688 пикселей
Высота : 512 пикселей
Соотношение сторон : 4:3
Частота кадров : 25,000 кадров/сек
Цветовое пространство : YUV
Субдискретизация насыщенности : 4:2:0
Битовая глубина : 8 бит
Тип развёртки : Прогрессивная
Метод сжатия : С потерями
Бит/(Пиксели*Кадры) : 0.216
Размер потока : 1,97 Гбайт (90%)
Библиотека кодирования : XviD 1.2.1 (UTC 2008-12-04)

Аудио
Идентификатор : 1
Формат : AC-3
Формат/Информация : Audio Coding 3
Расширение режима : CM (complete main)
Параметр Endianness формата : Big
Идентификатор кодека : 2000
Продолжительность : 2 ч. 28 м.
Вид битрейта : Постоянный
Битрейт : 192 Кбит/сек
Каналы : 2 канала
Расположение каналов : Front: L R
Частота : 48,0 КГц
Частота кадров : 31,250 кадров/сек (1536 spf)
Метод сжатия : С потерями
Размер потока : 204 Мбайт (9%)
Выравнивание : Разделение по промежуткам
Продолжительность промежутка : 40 мс. (1,00 видеокадр)
Время предзагрузки промежутка : 500 мс



Скачать Враги через торрент http://s020.radikal.ru/i704/1603/bb/5b92c7f99388.png Скачать, смотреть онлайн Враги бесплантно в хорошем качестве Описание:Фильм-спектакль по одноименной пьесе М.Горького в постановке Ленинградского БДТ, режиссер спектакля - Наталья Рашевская.Действие ... 5 10 1
Info! Золотая раздача, скачанное не засчитывается.
Торрент: Зарегистрирован [2016-03-02 08:19] · скачан: 14 раз
Статус: √ проверено
Размер: 2.18 GB
Как cкачать? Как скачать Враги через торрент | UTorrent

% Раздел Тема Автор DL S | L
Кино СССР [ 2.18 GB ] Враги | | DVDRip-AVC от AVP Studio AVP Studio Скачать
1 | 0
Кино СССР [ 1.09 GB ] Враги | | DVDRip от AVP Studio AVP Studio Скачать
1 | 0

28-11-2019 20:33  

Отключить вcю реклaмy на сайте

    Дорогой пользователь! Огромная просьба, поблагодарите релизера, оцените раздачу и оставьте свои комментарий, если Вы скачали Враги через торрент бесплатно!!
    Комментировать посты могут только пользователи прошедшие не сложную регистрацию
    Показать сообщения:    


    Враги через торрент
    Скачать бесплатно Враги
    Враги скачать торрент
    Враги смотреть онлайн
    Cкачать фильм Враги бесплатно
    Враги скачать торрент в хорошем качестве
    Враги смотреть онлайн бесплатно в хорошем качестве
    Вы не можете начинать темы
    Вы не можете отвечать на сообщения
    Вы не можете редактировать свои сообщения
    Вы не можете удалять свои сообщения
    Вы не можете голосовать в опросах
    Вы не можете прикреплять файлы к сообщениям
    Вы можете скачивать файлы