Доктор Стрэндж

Лицензия

Добыча

MVO

Дом дракона

1 сезон

Тор

Лицензия

Мэверик

Лицензия

Там, где раки поют

MVO

Властелин колец

1 сезон

Ultimate

pack

Рекомендуем

30

Repack

ВАЖНО

ВАЖНО

Ghostwire

RePack

jed

RePack

nioh2

RePack

RDR2

RePack

NEED FOR SPEED™ PAYBACK

RePack

скачать торрент

Кинопоиск HD

Острые козырьки 6 сезон

6 сезон

FAR CRY 6

RePack

скачать торрент

Лицензия

скачать торрент

MVO

1

1 сезон

скачать торрент

1 сезон

скачать торрент

Лицензия

  

Враги (Тамара Родионова) [1953, СССР, драма, DVDRip-AVC от AVP Studio]

Враги через торрент piratbit.org

Размер: 2.18 GB | Добавлен: 6 лет 7 мес. назад | Торрент скачан:14 раз
Смотреть онлайн Враги | Скачать   

02-03-2016 08:21 Враги Скачать торрент  

Враги
Страна: СССР
Производство: Ленфильм

Жанр: драма
Год выпуска: 1953
Продолжительность: 02:28:25

Перевод: Не требуется
Cубтитры: нет
Оригинальная аудиодорожка: русский

Режиссер: Тамара Родионова

В ролях:
Василий Софронов, Елена Грановская, Николай Корн, Валентина Кибардина, Нина Ольхина, Иван Ефремов, Степан Пономаренко, Анна Никритина, Александр Соколов, Виталий Иллич, Виктор Чайников, Николай Дмитриев, Владислав Стржельчик, Александр Лариков, Борис Рыжухин, Евгений Горюнов, Евгений Иванов, Александра Фомина, Николай Семилетов, Павел Колобов, Иван Пальму, А. Москвин, Александр Чепурнов...
Полный список актёров

Описание:
Фильм-спектакль по одноименной пьесе М.Горького в постановке Ленинградского БДТ, режиссер спектакля - Наталья Рашевская.
Действие происходит накануне революции 1905 года. На фабрике Бардина стало особенно неспокойно. Директор фабрики, компаньон хозяина Скроботов, отвергает справедливые требования рабочих уволить жестокого мастера. В ответ на возмущение рабочих хозяева закрывают фабрику и вызывают солдат. Скроботов угрожает рабочим револьвером, и его убивают...

Источник: DVD9 R5
Качество видео: DVDRip-AVC
Формат видео: MKV

Видео: 696->762x572 (4:3), 25 fps, H264 ~ 1907 kbps avg, 0.192 bit/pixel
Аудио: 48 kHz, Dolby Digital AC3 2.0, 192 kbps

Раздача от:
Общее
Полное имя : Vragi.1953.DVDRip-AVC_[New-team]_by_AVP_Studio.mkv
Формат : Matroska
Версия формата : Version 2
Размер файла : 2,18 Гбайт
Продолжительность : 2 ч. 28 м.
Общий поток : 2101 Кбит/сек
Дата кодирования : UTC 2016-02-29 13:38:48
Программа кодирования : mkvmerge v6.1.0 ('Old Devil') built on Mar 4 2013 09:10:42
Библиотека кодирования : libebml v1.3.0 + libmatroska v1.4.0

Видео
Идентификатор : 1
Формат : AVC
Формат/Информация : Advanced Video Codec
Профиль формата : High@L4.1
Параметр CABAC формата : Да
Параметр ReFrames формата : 10 кадров
Идентификатор кодека : V_MPEG4/ISO/AVC
Продолжительность : 2 ч. 28 м.
Битрейт : 1907 Кбит/сек
Ширина : 696 пикселей
Высота : 572 пикселя
Соотношение сторон : 4:3
Режим частоты кадров : Постоянный
Частота кадров : 25,000 кадров/сек
Цветовое пространство : YUV
Субдискретизация насыщенности : 4:2:0
Битовая глубина : 8 бит
Тип развёртки : Прогрессивная
Бит/(Пиксели*Кадры) : 0.192
Размер потока : 1,94 Гбайт (89%)
Библиотека кодирования : x264 core 130 r2273 b3065e6
Настройки программы : cabac=1 / ref=10 / deblock=1:-2:-1 / analyse=0x3:0x113 / me=umh / subme=10 / psy=1 / psy_rd=1.00:0.00 / mixed_ref=1 / me_range=32 / chroma_me=1 / trellis=2 / 8x8dct=1 / cqm=0 / deadzone=21,11 / fast_pskip=1 / chroma_qp_offset=-2 / threads=6 / lookahead_threads=1 / sliced_threads=0 / nr=0 / decimate=0 / interlaced=0 / bluray_compat=0 / constrained_intra=0 / bframes=8 / b_pyramid=2 / b_adapt=2 / b_bias=0 / direct=3 / weightb=1 / open_gop=0 / weightp=2 / keyint=250 / keyint_min=25 / scenecut=40 / intra_refresh=0 / rc=2pass / mbtree=0 / bitrate=1907 / ratetol=1.0 / qcomp=0.60 / qpmin=0 / qpmax=69 / qpstep=4 / cplxblur=20.0 / qblur=0.5 / ip_ratio=1.40 / pb_ratio=1.30 / aq=1:1.00
Default : Да
Forced : Нет

Аудио
Идентификатор : 2
Формат : AC-3
Формат/Информация : Audio Coding 3
Расширение режима : CM (complete main)
Параметр Endianness формата : Big
Идентификатор кодека : A_AC3
Продолжительность : 2 ч. 28 м.
Вид битрейта : Постоянный
Битрейт : 192 Кбит/сек
Каналы : 2 канала
Расположение каналов : Front: L R
Частота : 48,0 КГц
Частота кадров : 31,250 кадров/сек (1536 spf)
Метод сжатия : С потерями
Размер потока : 204 Мбайт (9%)
Default : Да
Forced : Нет



Скачать Враги через торрент http://s020.radikal.ru/i704/1603/bb/5b92c7f99388.png Скачать, смотреть онлайн Враги бесплантно в хорошем качестве Описание:Фильм-спектакль по одноименной пьесе М.Горького в постановке Ленинградского БДТ, режиссер спектакля - Наталья Рашевская.Действие ... 8.5 10 2
Info! Золотая раздача, скачанное не засчитывается.
Торрент: Зарегистрирован [2016-03-02 08:21] · скачан: 14 раз
Статус: √ проверено
Размер: 2.18 GB
Как cкачать? Как скачать Враги через торрент | UTorrent

% Раздел Тема Автор DL S | L
Кино СССР [ 1.09 GB ] Враги | | DVDRip от AVP Studio AVP Studio Скачать
1 | 0
Кино СССР [ 2.18 GB ] Враги | | DVDRip от AVP Studio AVP Studio Скачать
1 | 0

28-11-2019 20:33  

Отключить вcю реклaмy на сайте

    Дорогой пользователь! Огромная просьба, поблагодарите релизера, оцените раздачу и оставьте свои комментарий, если Вы скачали Враги через торрент бесплатно!!
    Комментировать посты могут только пользователи прошедшие не сложную регистрацию
    Показать сообщения:    


    Враги через торрент
    Скачать бесплатно Враги
    Враги скачать торрент
    Враги смотреть онлайн
    Cкачать фильм Враги бесплатно
    Враги скачать торрент в хорошем качестве
    Враги смотреть онлайн бесплатно в хорошем качестве
    Вы не можете начинать темы
    Вы не можете отвечать на сообщения
    Вы не можете редактировать свои сообщения
    Вы не можете удалять свои сообщения
    Вы не можете голосовать в опросах
    Вы не можете прикреплять файлы к сообщениям
    Вы можете скачивать файлы