Ссылка на приватное зеркало нашего сайта всего за 1$. Внимание количество ограничено!!!

2 сезон

iTunes

iTunes

1

iTunes

iTunes

iTunes

WEBRip

iTunes

30
pack

Забери бонус

ВАЖНО

!!Акция!!

Alien_RageХит недели

RePack

RESIDENT EVIL 3: NEMESIS REMAKE

ИГРА 18+

pack

RePack

jed

!!Акция!!

Alien_Rage

RePack

fifa19

RePack

Assassins Creed: Odyssey

RePack

NEED FOR SPEED™ PAYBACK

4 сезон

9 сезон

Бесстыжие 9 сезон

Все сериалы

все сериалы на PB.wtf

RePack

FAR CRY 5
  

Возвращение в город Мертвых / Voodoo Moon (Кевин ВанХук) [2006 г., ужасы, фэнтези, драма, DVDRip, Профессиональный (многоголосый)] piratbit.org

Возвращение в город Мертвых через торрент piratbit.org

Размер: 1.37 GB | Добавлен: 4 года 6 мес. назад | Торрент скачан:70 раз
Скачать  

02-03-2016 22:30 Возвращение в город Мертвых Скачать торрент  

Возвращение в город Мертвых / Voodoo Moon
«Evil is reborn by the light of the moon»
Год выпуска: 2006
Страна: Канада, США
Жанр: ужасы, фэнтези, драма
Продолжительность: 01:31:39
Перевод: Профессиональный (многоголосый)
Режиссер: Кевин ВанХук
Продюссер: Карен Бэйли, Крэйг Айерс, Моррис Бергер
Сценарий: Кевин ВанХук
Оператор: Мэтт Стейнаур
Композитор: Людек Дрижал
Художник: Майкл Левинсон, Джордж Гудридж, Дженнифер Л. Соулэйджс
Монтаж: Кевин ВанХук
Бюджет: $2 000 000
Премьера в мире: 4 июня 2006
:
Эрик Мэбиас, Чаризма Карпентер, Рик Янг, Джеффри Комбс, Джэйн Хейтмейер, Ди Уоллес-Стоун, Джон Эймос, Рейнальдо Гальегос, Кимберли Хоторн, Дэвид Жан Томас
:
Двадцать лет назад в маленький южный город вторглись демонические силы, послужившие причиной того, что соседи начали убивать друг друга. Почти все жители городка были уничтожены. Коул и его сестра Хизер были тогда маленькими детьми, и им чудом удалось выжить, но они были свидетелями кровавой резни своих родителей.
С тех пор Хизер приобрела дар предсказывать будущее. Свои предсказания, которые всегда сбываются, она выражает в рисунках и они всегда трагичны. Коул большую часть своей взрослой жизни посвятил изучению мировых религий и построению системы защиты от демонов, став изгнанником нечистой силы.
Теперь, спустя двадцать лет, Коул и Хизер должны вернуться в свой родной город, чтобы вступить в решающую схватку с черными силами, которые разрушили их жизнь. На помощь им спешат люди, которым в жизни также довелось столкнуться с дьяволом и теперь они готовы отдать свои жизни ради победы над силами зла.

Качество: DVDRip
Формат: AVI
Видео кодек: XviD
Аудио кодек: AC3
Видео: XviD, 1 742 Kbps, 704x384, 23.976 fps, 0.269 bit/pixel
Аудио#1: АС3, 6 ch, 48.0 KHz, 384 Kbps





C:\загрузки\Vosvraschenie.v.gorod.mertvyh.2005.XviD.DVDRip-Kinozal.TV.avi
General
Complete name : C:\загрузки\Vosvraschenie.v.gorod.mertvyh.2005.XviD.DVDRip-Kinozal.TV.avi
Format : AVI
Format/Info : Audio Video Interleave
File size : 1.37 GiB
Duration : 1h 31mn
Overall bit rate : 2 135 Kbps
Writing application : VirtualDubMod 1.5.10.2 (build 2540/release)
Writing library : VirtualDubMod build 2540/release
Video #0
ID : 0
Format : MPEG-4 Visual
Format profile : Advanced Simple@L5
Format settings, BVOP : 1
Format settings, QPel : No
Format settings, GMC : No warppoints
Format settings, Matrix : Default (MPEG)
Codec ID : XVID
Codec ID/Hint : XviD
Duration : 1h 31mn
Bit rate : 1 742 Kbps
Width : 704 pixels
Height : 384 pixels
Display aspect ratio : 1.85:1
Frame rate : 23.976 fps
Color space : YUV
Chroma subsampling : 4:2:0
Bit depth : 8 bits
Scan type : Progressive
Compression mode : Lossy
Bits/(Pixel*Frame) : 0.269
Stream size : 1.12 GiB (82%)
Writing library : XviD 1.2.0.dev47 (UTC 2006-11-01)
Audio #1
ID : 1
Format : AC-3
Format/Info : Audio Coding 3
Mode extension : CM (complete main)
Format settings, Endianness : Big
Codec ID : 2000
Duration : 1h 31mn
Bit rate mode : Constant
Bit rate : 384 Kbps
Channel(s) : 6 channels
Channel positions : Front: L C R, Side: L R, LFE
Sampling rate : 48.0 KHz
Compression mode : Lossy
Stream size : 252 MiB (18%)
Alignment : Split accross interleaves
Interleave, duration : 42 ms (1.00 video frame)
Interleave, preload duration : 500 ms

piratbit.org



Скачать Возвращение в город Мертвых через торрент http://pic1.kartinco.top/images/10/oc8hl.jpg Скачать фильм Возвращение в город Мертвых через торрент бесплантно в хорошем качестве Год выпуска: 2006Страна: Канада, СШАЖанр: ужасы, фэнтези, драмаПродолжительность: 01:31:39Перевод: Профессиональный ()Режиссер: ... 8.2 10 5
Торрент: Зарегистрирован [2016-03-02 22:30] · скачан: 70 раз
Статус: √ проверено
Размер: 1.37 GB
Как cкачать? Как скачать Возвращение в город Мертвых через торрент | qTorrent

28-11-2019 20:33  

Отключить всю рекламу на сайте

    Дорогой пользователь! Огромная просьба, поблагодарите релизера, оцените раздачу и оставьте свои комментарий, если Вы скачали Возвращение в город Мертвых через торрент бесплатно! Внесите свою лепту в развитие PiratBit!
    Комментировать посты могут только пользователи прошедшие не сложную регистрацию
    Показать сообщения:    

    Возвращение в город Мертвых через торрент
    Скачать бесплатно Возвращение в город Мертвых
    Возвращение в город Мертвых скачать торрент
    Возвращение в город Мертвых смотреть онлайн
    Cкачать фильм Возвращение в город Мертвых бесплатно
    Возвращение в город Мертвых скачать торрент в хорошем качестве
    Возвращение в город Мертвых смотреть онлайн бесплатно в хорошем качестве


    Вы не можете начинать темы
    Вы не можете отвечать на сообщения
    Вы не можете редактировать свои сообщения
    Вы не можете удалять свои сообщения
    Вы не можете голосовать в опросах
    Вы не можете прикреплять файлы к сообщениям
    Вы можете скачивать файлы