Доктор Стрэндж

Лицензия

Добыча

MVO

Дом дракона

1 сезон

Тор

Лицензия

Мэверик

Лицензия

Там, где раки поют

MVO

Властелин колец

1 сезон

Ultimate

pack

Рекомендуем

30

Repack

ВАЖНО

ВАЖНО

Ghostwire

RePack

jed

RePack

nioh2

RePack

RDR2

RePack

NEED FOR SPEED™ PAYBACK

RePack

скачать торрент

Кинопоиск HD

Острые козырьки 6 сезон

6 сезон

FAR CRY 6

RePack

скачать торрент

Лицензия

скачать торрент

MVO

1

1 сезон

скачать торрент

1 сезон

скачать торрент

Лицензия

  

Живой труп (Владимир Венгеров) [1968, СССР, драма, DVDRip-AVC от AVP Studio]

Живой труп через торрент piratbit.org

Размер: 1.09 GB | Добавлен: 6 лет 7 мес. назад | Торрент скачан:27 раз
Смотреть онлайн | Скачать   

03-03-2016 09:19 Живой труп Скачать торрент  

Живой труп
Страна: СССР
Производство: Ленфильм

Жанр: драма
Год выпуска: 1968
Продолжительность: 02:14:04

Перевод: Не требуется
Cубтитры: нет
Оригинальная аудиодорожка: русский

Режиссер: Владимир Венгеров

В ролях:
Алексей Баталов, Алла Демидова, Олег Басилашвили, Лидия Штыкан, Елена Чёрная, Софья Пилявская, Евгений Кузнецов, Светлана Тома, Всеволод Кузнецов, Пантелеймон Крымов, Алексей Кожевников, Олег Борисов, Николай Боярский, Иннокентий Смоктуновский...
Полный список актёров

Описание:
Драма по одноименной пьесе Л.Н.Толстого.
Федор Протасов с вершин общества опускается на самое его дно, и делает этот выбор осознанно, не желая жить ложью...

Источник: DVD5 R5
Качество видео: DVDRip-AVC
Формат видео: MKV

Видео: 672->888x378 (2,35:1), 25 fps, H264 ~ 968 kbps avg, 0.152 bit/pixel
Аудио: 48 kHz, Dolby Digital AC3 2.0, 192 kbps

Раздача от:
Общее
Полное имя : Zhivoy.trup.1953.DVDRip-AVC_[New-team]_by_AVP_Studio.mkv
Формат : Matroska
Версия формата : Version 2
Размер файла : 1,09 Гбайт
Продолжительность : 2 ч. 14 м.
Общий поток : 1162 Кбит/сек
Дата кодирования : UTC 2016-02-29 16:09:08
Программа кодирования : mkvmerge v6.1.0 ('Old Devil') built on Mar 4 2013 09:10:42
Библиотека кодирования : libebml v1.3.0 + libmatroska v1.4.0

Видео
Идентификатор : 1
Формат : AVC
Формат/Информация : Advanced Video Codec
Профиль формата : High@L4.1
Параметр CABAC формата : Да
Параметр ReFrames формата : 10 кадров
Идентификатор кодека : V_MPEG4/ISO/AVC
Продолжительность : 2 ч. 14 м.
Битрейт : 968 Кбит/сек
Ширина : 672 пикселя
Высота : 378 пикселей
Соотношение сторон : 2,35:1
Соотношение сторон в оригинале : 2,35:1
Режим частоты кадров : Постоянный
Частота кадров : 25,000 кадров/сек
Цветовое пространство : YUV
Субдискретизация насыщенности : 4:2:0
Битовая глубина : 8 бит
Тип развёртки : Прогрессивная
Бит/(Пиксели*Кадры) : 0.152
Размер потока : 908 Мбайт (81%)
Библиотека кодирования : x264 core 130 r2273 b3065e6
Настройки программы : cabac=1 / ref=10 / deblock=1:-2:-1 / analyse=0x3:0x113 / me=umh / subme=10 / psy=1 / psy_rd=1.00:0.00 / mixed_ref=1 / me_range=32 / chroma_me=1 / trellis=2 / 8x8dct=1 / cqm=0 / deadzone=21,11 / fast_pskip=1 / chroma_qp_offset=-2 / threads=6 / lookahead_threads=1 / sliced_threads=0 / nr=0 / decimate=0 / interlaced=0 / bluray_compat=0 / constrained_intra=0 / bframes=8 / b_pyramid=2 / b_adapt=2 / b_bias=0 / direct=3 / weightb=1 / open_gop=0 / weightp=2 / keyint=250 / keyint_min=25 / scenecut=40 / intra_refresh=0 / rc=2pass / mbtree=0 / bitrate=968 / ratetol=1.0 / qcomp=0.60 / qpmin=0 / qpmax=69 / qpstep=4 / cplxblur=20.0 / qblur=0.5 / ip_ratio=1.40 / pb_ratio=1.30 / aq=1:1.00
Default : Да
Forced : Нет

Аудио
Идентификатор : 2
Формат : AC-3
Формат/Информация : Audio Coding 3
Расширение режима : CM (complete main)
Параметр Endianness формата : Big
Идентификатор кодека : A_AC3
Продолжительность : 2 ч. 14 м.
Вид битрейта : Постоянный
Битрейт : 192 Кбит/сек
Каналы : 2 канала
Расположение каналов : Front: L R
Частота : 48,0 КГц
Частота кадров : 31,250 кадров/сек (1536 spf)
Метод сжатия : С потерями
Размер потока : 184 Мбайт (17%)
Default : Да
Forced : Нет



Скачать Живой труп через торрент http://s009.radikal.ru/i307/1603/21/2b8951f4630b.png Скачать, смотреть онлайн Живой труп бесплантно в хорошем качестве Описание:Драма по одноименной пьесе Л.Н.Толстого.Федор Протасов с вершин общества опускается на самое его дно, и делает этот выбор ... 10 10 2
Info! Золотая раздача, скачанное не засчитывается.
Торрент: Зарегистрирован [2016-03-03 09:19] · скачан: 27 раз
Статус: √ проверено
Размер: 1.09 GB
Как cкачать? Как скачать Живой труп через торрент | UTorrent

% Раздел Тема Автор DL S | L
Кино СССР [ 1.09 GB ] Живой труп | | DVDRip от AVP Studio AVP Studio Скачать
1 | 0

28-11-2019 20:33  


Отключить вcю реклaмy на сайте, в т.ч. и в плеере онлайн просмотра!

    Дорогой пользователь! Огромная просьба, поблагодарите релизера, оцените раздачу и оставьте свои комментарий, если Вы скачали Живой труп через торрент бесплатно!!
    Комментировать посты могут только пользователи прошедшие не сложную регистрацию
    Показать сообщения:    


    Живой труп через торрент
    Скачать бесплатно Живой труп
    Живой труп скачать торрент
    Живой труп смотреть онлайн
    Cкачать фильм Живой труп бесплатно
    Живой труп скачать торрент в хорошем качестве
    Живой труп смотреть онлайн бесплатно в хорошем качестве
    Вы не можете начинать темы
    Вы не можете отвечать на сообщения
    Вы не можете редактировать свои сообщения
    Вы не можете удалять свои сообщения
    Вы не можете голосовать в опросах
    Вы не можете прикреплять файлы к сообщениям
    Вы можете скачивать файлы