Присоединяйтесь к нам в Telegram!, здесь всегда актуальный адрес сайта, оперативная поддержка и многое другое!!

>

5.9

iTunes

7.4

iTunes

9.4

1 сезон

1

7.4

2 сезон

7.2

iTunes

7.3

1 сезон

13

6.1

iTunes

8.3

Пиратка

30

ULTIMATE

pack

9.9

Лицензия

ВАЖНО

ИГРА 18+

pack

7.3

RePack

MK11

7.7

RePack

jed

7.8

RePack

fifa19

8.5

RePack

RDR2

RePack

NEED FOR SPEED™ PAYBACK

5 сезон

9 сезон

Бесстыжие 9 сезон

Все сериалы

все сериалы на PB.wtf

RePack

FAR CRY 5

Anonymous, доброй ночи, мы катастрофически не успеваем собрать деньги на оплату серверов, помогите нам пожалуйста 5,10,15р., для нас важна любая помощь . В качестве благодарности мы отключим Вам всю рекламу на сайте (укажите свой ник в строку Ваше имя)!

×
  
Magnet ссылка

Отчужденная / Estranged (Адам Левинс) [2015, триллер, WEB-DLRip] VO (Хихикающий доктор) piratbit.org

Отчужденная через торрент piratbit.org

Размер: 1.37 GB | Добавлен: 5 лет 8 мес. назад | Торрент скачан:201 раз
Смотреть онлайн Отчужденная | Скачать    Ребята, помогите собрать деньги на оплату серверов!!!

08-03-2016 11:24 Отчужденная Скачать торрент  

Отчужденная / Estranged«There's no place like home»

Год выпуска: 2015
Страна: Великобритания
Жанр: триллер
Продолжительность: 01:28:33
Перевод: Любительский одноголосый (Хихикающий доктор)

Режиссер: Адам Левинс
Сценарий: Симон Фантаудзо, Уильям Бортвик
Продюсер: Уильям Бортвик, Крэйг Конуэй, Violeta Grancelli
Оператор: Гари Шоу
Композитор: Брайан Кросби
Художник: Сара Беман, Микаэла Тродден, Brett Doherty
Монтаж: Бен Кинг

В ролях: Крэйг Конуэй / Craig Conway (Thomas), Джеймс Космо / James Cosmo (Albert), Боб Дафф / Bob Duff (Lord Dunfield), Джеймс Лэнс / James Lance (Laurence), Эми Мэнсон / Amy Manson (January), Фэй МакЛафлин / Faye McLoughlin (Young January), Айлин Николас / Eileen Nicholas (Marilyn), Нора-Джейн Нун / Nora-Jane Noone (Kathrine)


Описание:Несчастный случай оставил девушку недееспособной, с провалами в памяти и прикованной инвалидному креслу. Она с бойфрендом возвращается домой после того, как находилась за границей в течение шести лет. Невозможность вспомнить свою семью или ее собственное детство и почему покинула дом, девушка быстро обнаруживает, что ее родственники не столь же любящие, как она думала.


Премьера (мир): 29 августа 2015



Качество: WEB-DLRip
Формат: AVI
Видео кодек: XviD
Аудио кодеk: AC3
Видео: 720x384 (1.85:1), 25.000 fps, XviD, 2 006 Kbps
Аудио: : AC3, 192 Kbps, 48.0 KHz, 2 ch

Код:

General
Complete name                            : Estranged.2015.L1.WEB-DLRip.avi
Format                                   : AVI
Format/Info                              : Audio Video Interleave
File size                                : 1.37 GiB
Duration                                 : 1h 28mn
Overall bit rate                         : 2 208 Kbps
Writing application                      : VirtualDubMod 1.5.10.3 | www.virtualdub-fr.org || (build 2550/release)
Writing library                          : VirtualDubMod build 2550/release

Video
ID                                       : 0
Format                                   : MPEG-4 Visual
Format profile                           : Advanced Simple@L5
Format settings, BVOP                    : 2
Format settings, QPel                    : No
Format settings, GMC                     : No warppoints
Format settings, Matrix                  : Default (H.263)
Muxing mode                              : Packed bitstream
Codec ID                                 : XVID
Codec ID/Hint                            : XviD
Duration                                 : 1h 28mn
Bit rate                                 : 2 006 Kbps
Width                                    : 720 pixels
Height                                   : 384 pixels
Display aspect ratio                     : 1.85:1
Frame rate                               : 25.000 fps
Color space                              : YUV
Chroma subsampling                       : 4:2:0
Bit depth                                : 8 bits
Scan type                                : Progressive
Compression mode                         : Lossy
Bits/(Pixel*Frame)                       : 0.290
Stream size                              : 1.24 GiB (91%)
Writing library                          : XviD 66

Audio
ID                                       : 1
Format                                   : AC-3
Format/Info                              : Audio Coding 3
Mode extension                           : CM (complete main)
Format settings, Endianness              : Big
Codec ID                                 : 2000
Duration                                 : 1h 28mn
Bit rate mode                            : Constant
Bit rate                                 : 192 Kbps
Channel(s)                               : 2 channels
Channel positions                        : Front: L R
Sampling rate                            : 48.0 KHz
Bit depth                                : 16 bits
Compression mode                         : Lossy
Stream size                              : 122 MiB (9%)
Alignment                                : Split accross interleaves
Interleave, duration                     : 40 ms (1.00 video frame)
Interleave, preload duration             : 500 ms



piratbit.org



Скачать Отчужденная через торрент http://i73.fastpic.ru/big/2016/0308/b6/991bd12b04fd1091e85a325c49cf53b6.jpg Скачать, смотреть онлайн Отчужденная бесплантно в хорошем качестве Описание:Несчастный случай оставил девушку недееспособной, с провалами в памяти и прикованной инвалидному креслу. Она с бойфрендом ... 6.6 10 8
Торрент: Зарегистрирован [2016-03-08 11:24] · скачан: 201 раз
Статус: T временная
Размер: 1.37 GB
Как cкачать? Как скачать Отчужденная через торрент | UTorrent



Последний раз редактировалось: Energy (2016-03-08 16:44), всего редактировалось 3 раз(а)

28-11-2019 20:33  

Отключить всю рекламу на сайте

08-03-2016 13:34 Отчужденная Скачать торрент  

какое блин интригующее описание))) и на кинопоиске тоже)) пожалуй добавлю, мало-ли, вдруг кому интересно:
Несчастный случай сделал девушку недееспособной, с провалами в памяти и прикованной инвалидному креслу. Она с бойфрендом возвращается домой после того, как находилась за границей в течение шести лет. Не в состоянии вспомнить свою семью или своё собственное детство и почему покинула дом, девушка быстро обнаруживает, что ее родственники не столь любящие, как она думала ранее.. piratbit.org



08-03-2016 14:10 Отчужденная Скачать торрент  

Реклама в новых релизах Кино?

Цитата:

Также требование к заливающим, проверять свои релизы на наличие рекламы и указывать об этом в теме.

piratbit.org



08-03-2016 14:22 Отчужденная Скачать торрент  

schultz, Рекламы.НЕТpiratbit.org



08-03-2016 17:36 Отчужденная Скачать торрент  

tamburetko писал(а):

какое блин интригующее описание))) и на кинопоиске тоже)) пожалуй добавлю, мало-ли, вдруг кому интересно:
Несчастный случай сделал девушку недееспособной, с провалами в памяти и прикованной инвалидному креслу. Она с бойфрендом возвращается домой после того, как находилась за границей в течение шести лет. Не в состоянии вспомнить свою семью или своё собственное детство и почему покинула дом, девушка быстро обнаруживает, что ее родственники не столь любящие, как она думала ранее..

piratbit.org



09-03-2016 01:23 Отчужденная Скачать торрент  

а фильм-то неплох . для меня так на твёрдую семёрку.piratbit.org



    Дорогой пользователь! Огромная просьба, поблагодарите релизера, оцените раздачу и оставьте свои комментарий, если Вы скачали Отчужденная через торрент бесплатно!
    Комментировать посты могут только пользователи прошедшие не сложную регистрацию
    Показать сообщения:    

    Отчужденная через торрент
    Скачать бесплатно Отчужденная
    Отчужденная скачать торрент
    Отчужденная смотреть онлайн
    Cкачать фильм Отчужденная бесплатно
    Отчужденная скачать торрент в хорошем качестве
    Отчужденная смотреть онлайн бесплатно в хорошем качестве


    Вы не можете начинать темы
    Вы не можете отвечать на сообщения
    Вы не можете редактировать свои сообщения
    Вы не можете удалять свои сообщения
    Вы не можете голосовать в опросах
    Вы не можете прикреплять файлы к сообщениям
    Вы можете скачивать файлы