Присоединяйтесь к нам в Telegram!, здесь всегда актуальный адрес сайта, оперативная поддержка и многое другое!!

>

5.9

iTunes

7.4

iTunes

9.4

1 сезон

1

7.4

2 сезон

7.2

iTunes

7.3

iTunes

13

6.1

iTunes

8.3

Пиратка

30

ULTIMATE

pack

9.9

Лицензия

ВАЖНО

ИГРА 18+

pack

7.3

RePack

MK11

7.7

RePack

jed

7.8

RePack

fifa19

8.5

RePack

RDR2

RePack

NEED FOR SPEED™ PAYBACK

5 сезон

9 сезон

Бесстыжие 9 сезон

Все сериалы

все сериалы на PB.wtf

RePack

FAR CRY 5

Anonymous, доброй ночи, мы катастрофически не успеваем собрать деньги на оплату серверов, помогите нам пожалуйста 5,10,15р., для нас важна любая помощь . В качестве благодарности мы отключим Вам всю рекламу на сайте (укажите свой ник в строку Ваше имя)!

×
  
Magnet ссылка

Мы уроды / We Are Monsters (Сонни Лагуна) [2015 г., ужасы, триллер, драма, DVDRip, Любительский двухголосый [den904, DeadSno] DVO (Без рекламы) piratbit.org

Мы уроды через торрент piratbit.org

Размер: 1.37 GB | Добавлен: 5 лет 8 мес. назад | Торрент скачан:358 раз
Смотреть онлайн Мы уроды | Скачать    Ребята, помогите собрать деньги на оплату серверов!!!

10-03-2016 16:02 Мы уроды Скачать торрент  

«Ни шанса на побег» Мы уроды
Год выпуска » 2015
Страна » Швеция / Stockholm Syndrome Film
Жанр » ужасы, триллер, драма
Продолжительность » 01:14:09
Перевод » Любительское (двухголосое) [den904 & DeadSno], перевод [den904]
Субтитры » Нет

В ролях
» Ханна Ольденбург, Ральф Бек, Ники Норденшёльд, Торбьёрн Андерссон, Лина Холл, Tove Vahlne, Стефан Исакссон, Madeleine Norberg

Режиссёр
» Сонни Лагуна, Томмю Виклунд

» Молодая девушка по имени Эмма подвергается нападению таксиста, получает дозу наркотиков и вырубается. Очнувшись в какой-то грязной хибаре, Эмма узнаёт, что теперь она на вечеринке, организованной тремя садистами-психопатами. К сожалению или нет, но психопаты не знают, что Эмма чрезвычайно стойкая и целеустремлённая девушка…

• Качество » DVDRip
• Формат » AVI
• Видео кодек » XviD
• Аудио кодек » AC3
• Примечание: » Театральная версия - полный перевод!
• Видео » MPEG-4 Visual,2309 kb/s, 720x288,25,000 кадров/сек
• Аудио » Русский (AC-3 / 6 ch / 320 kbps /16 bit / 48,0 КГц )


Общее
Полное имя : E:\Новая папка (2)\Mbl.MoHCTpbl.2015.L2.DVDRip.avi
Формат : AVI
Формат/Информация : Audio Video Interleave
Размер файла : 1,37 Гбайт
Продолжительность : 1 ч. 14 м.
Общий поток : 2638 Кбит/сек
Программа кодирования : VirtualDubMod 1.5.10.3 | www.virtualdub-fr.org || (build 2550/release)
Библиотека кодирования : VirtualDubMod build 2550/release

Видео
Идентификатор : 0
Формат : MPEG-4 Visual
Профиль формата : Advanced Simple@L5
Параметр BVOP формата : 1
Параметр QPel формата : Нет
Параметр GMC формата : Без точки перехода
Параметр матрицы формата : Выборочная
Идентификатор кодека : XVID
Идентификатор кодека/Подсказка : XviD
Продолжительность : 1 ч. 14 м.
Битрейт : 2309 Кбит/сек
Ширина : 720 пикселей
Высота : 288 пикселей
Соотношение сторон : 2,500
Частота кадров : 25,000 кадров/сек
Цветовое пространство : YUV
Субдискретизация насыщенности : 4:2:0
Битовая глубина : 8 бит
Тип развёртки : Прогрессивная
Метод сжатия : С потерями
Бит/(Пиксели*Кадры) : 0.445
Размер потока : 1,20 Гбайт (88%)
Библиотека кодирования : XviD 73

Аудио
Идентификатор : 1
Формат : AC-3
Формат/Информация : Audio Coding 3
Расширение режима : CM (complete main)
Параметр Endianness формата : Big
Идентификатор кодека : 2000
Продолжительность : 1 ч. 14 м.
Вид битрейта : Постоянный
Битрейт : 320 Кбит/сек
Каналы : 6 каналов
Расположение каналов : Front: L C R, Side: L R, LFE
Частота : 48,0 КГц
Битовая глубина : 16 бит
Метод сжатия : С потерями
Размер потока : 170 Мбайт (12%)
Выравнивание : Разделение по промежуткам
Продолжительность промежутка : 40 мс. (1,00 видеокадр)
Время предзагрузки промежутка : 500 мс.
скриншот   скриншот   скриншот   скриншот   скриншот   скриншот   скриншот   скриншот   скриншот   скриншот  
piratbit.org



Скачать Мы уроды через торрент https://pic1.kartinco.top/images/10/eusjo.jpg Скачать, смотреть онлайн Мы уроды бесплантно в хорошем качестве В ролях » Ханна Ольденбург, Ральф Бек, Ники Норденшёльд, Торбьёрн Андерссон, Лина Холл, Tove Vahlne, Стефан Исакссон, Madeleine Norberg ... 7.4 10 17
Торрент: Зарегистрирован [2016-03-10 16:02] · скачан: 358 раз
Статус: T временная
Размер: 1.37 GB
Как cкачать? Как скачать Мы уроды через торрент | UTorrent



Последний раз редактировалось: $-DRON-$ (2016-03-10 16:23), всего редактировалось 1 раз

28-11-2019 20:33  

Отключить всю рекламу на сайте

10-03-2016 16:06 Мы уроды Скачать торрент  

Перевод » Любительское (двухголосое) [den904 & DeadSno], [iTunes].....спасибо поржал :)piratbit.org



10-03-2016 16:25 Мы уроды Скачать торрент  

Userman4ik, Не показалось ,уже убрал piratbit.org



10-03-2016 21:08 Мы уроды Скачать торрент  

Мы уроды? спасибо тоже поржал piratbit.org



10-03-2016 21:14 Мы уроды Скачать торрент  

Dante1987, Надо было наверно им и слоган к фильму такой же писать piratbit.org



11-03-2016 05:52 Мы уроды Скачать торрент  

это чудо-переводчики сами себя так назвали, скрытое послание прям в названии.piratbit.org



11-03-2016 22:16 Мы уроды Скачать торрент  

Bink писал(а):

это чудо-переводчики сами себя так назвали, скрытое послание прям в названии.

Евгений Ваганович, Вы какими судьбами тут?! Отличная шутка, кстати! Прям Аншлаг!!piratbit.org



12-03-2016 18:47 Мы уроды Скачать торрент  

mojk писал(а):

Bink писал(а):

это чудо-переводчики сами себя так назвали, скрытое послание прям в названии.

Евгений Ваганович, Вы какими судьбами тут?! Отличная шутка, кстати! Прям Аншлаг!!

где ты увидел хоть намек на шутку?piratbit.org



13-03-2016 07:51 Мы уроды Скачать торрент  

Постер вообще по моему не к этому фильму,а фильм на один раз стоит глянуть,но вечер на него лучше не тратить, похож на Я плюю на на ваши могилыpiratbit.org



15-03-2016 00:53 Мы уроды Скачать торрент  

$-DRON-$ писал(а):

Постер вообще по моему не к этому фильму

Вот к этому. piratbit.org



15-03-2016 16:00 Мы уроды Скачать торрент  

еBurbon, спасибо его я тоже видел когда обложку искал piratbit.org



15-03-2016 16:11 Мы уроды Скачать торрент  

$-DRON-$ писал(а):

еBurbon, спасибо его я тоже видел когда обложку искал

тогда уж это :) piratbit.org



    Дорогой пользователь! Огромная просьба, поблагодарите релизера, оцените раздачу и оставьте свои комментарий, если Вы скачали Мы уроды через торрент бесплатно!
    Комментировать посты могут только пользователи прошедшие не сложную регистрацию
    Показать сообщения:    

    Мы уроды через торрент
    Скачать бесплатно Мы уроды
    Мы уроды скачать торрент
    Мы уроды смотреть онлайн
    Cкачать фильм Мы уроды бесплатно
    Мы уроды скачать торрент в хорошем качестве
    Мы уроды смотреть онлайн бесплатно в хорошем качестве


    Вы не можете начинать темы
    Вы не можете отвечать на сообщения
    Вы не можете редактировать свои сообщения
    Вы не можете удалять свои сообщения
    Вы не можете голосовать в опросах
    Вы не можете прикреплять файлы к сообщениям
    Вы можете скачивать файлы