Лицензия

MVO

1

1 сезон

Лицензия

Лицензия

13

MVO

1 сезон

Deluxe Edition

pack

Рекомендуем

30

Repack

ВАЖНО

ВАЖНО

Ghostwire

RePack

jed

RePack

fifa19

RePack

RDR2

RePack

NEED FOR SPEED™ PAYBACK

RePack

Кинопоиск HD

 Острые козырьки 6 сезон

6 сезон

FAR CRY 6

RePack

Лицензия

MVO

1

1 сезон

1 сезон

Лицензия

  

Варвары (Леонид Луков, Константин Зубов) [1953, СССР, драма, DVDRip от AVP Studio]

Варвары через торрент piratbit.org

Размер: 1.46 GB | Добавлен: 6 лет 6 мес. назад | Торрент скачан:16 раз
Смотреть онлайн Варвары | Скачать   

15-03-2016 08:28 Варвары Скачать торрент  

Варвары
Страна: СССР
Производство: К/ст им.Горького

Жанр: драма
Год выпуска: 1953
Продолжительность: 02:49:08

Перевод: Не требуется
Cубтитры: нет
Оригинальная аудиодорожка: русский

Режиссер: Леонид Луков, Константин Зубов

В ролях:
Евдокия Турчанинова, Ирина Ликсо, Евгений Велихов, Елена Гоголева, Николай Шамин, Павел Оленев, Павла Богатыренко, Владимир Головин, Валентина Орлова, Александр Коротков, Аркадий Смирнов, Пётр Старковский, Валентина Тёмкина, Владимир Савельев (II), Владимир Вилль, Николай Сивов, Геннадий Сергеев, Николай Анненков, Ксения Тарасова, Константин Зубов, Дмитрий Павлов, Елена Кузнецова...
Полный список актёров

Описание:
Фильм-спектакль по одноименной пьесе М.Горького.
Спектакль Малого театра СССР. Режиссер спектакля — Константин Зубов.

Источник: DVD9 R5
Качество видео: DVDRip
Формат видео: AVI

Видео: 640x480 (4:3), 25 fps, XviD ~ 1097 kbps avg, 0.143 bit/pixel
Аудио: 48 kHz, MP3 2.0, 128 kbps

Раздача от:
Общее
Полное имя : Varvary.1953.DVDRip-1.46_[New-team]_by_AVP_Studio.avi
Формат : AVI
Формат/Информация : Audio Video Interleave
Размер файла : 1,46 Гбайт
Продолжительность : 2 ч. 49 м.
Общий поток : 1235 Кбит/сек
Программа кодирования : VirtualDubMod 1.5.10.3 | www.virtualdub-fr.org || (build 2550/release)
Библиотека кодирования : VirtualDubMod build 2550/release

Видео
Идентификатор : 0
Формат : MPEG-4 Visual
Профиль формата : Advanced Simple@L5
Параметр BVOP формата : 1
Параметр QPel формата : Нет
Параметр GMC формата : Без точки перехода
Параметр матрицы формата : Выборочная
Идентификатор кодека : XVID
Идентификатор кодека/Подсказка : XviD
Продолжительность : 2 ч. 49 м.
Битрейт : 1097 Кбит/сек
Ширина : 640 пикселей
Высота : 480 пикселей
Соотношение сторон : 4:3
Частота кадров : 25,000 кадров/сек
Цветовое пространство : YUV
Субдискретизация насыщенности : 4:2:0
Битовая глубина : 8 бит
Тип развёртки : Прогрессивная
Метод сжатия : С потерями
Бит/(Пиксели*Кадры) : 0.143
Размер потока : 1,30 Гбайт (89%)
Библиотека кодирования : XviD 1.2.1 (UTC 2008-12-04)

Аудио
Идентификатор : 1
Формат : MPEG Audio
Версия формата : Version 1
Профиль формата : Layer 3
Идентификатор кодека : 55
Идентификатор кодека/Подсказка : MP3
Продолжительность : 2 ч. 49 м.
Вид битрейта : Постоянный
Битрейт : 128 Кбит/сек
Каналы : 2 канала
Частота : 48,0 КГц
Метод сжатия : С потерями
Размер потока : 155 Мбайт (10%)
Выравнивание : Соединение по промежуткам
Продолжительность промежутка : 40 мс. (1,00 видеокадр)
Время предзагрузки промежутка : 504 мс.
Библиотека кодирования : LAME3.99r
Настройки программы : -m s -V 4 -q 2 -lowpass 17 -b 128



Скачать Варвары через торрент http://s45.radikal.ru/i107/1603/90/cfa5b156eae6.png Скачать, смотреть онлайн Варвары бесплантно в хорошем качестве Описание:Фильм-спектакль по одноименной пьесе М.Горького.Спектакль Малого театра СССР. Режиссер спектакля — Константин Зубов. ... 5 10 1
Info! Золотая раздача, скачанное не засчитывается.
Торрент: Зарегистрирован [2016-03-15 08:28] · скачан: 16 раз
Статус: √ проверено
Размер: 1.46 GB
Как cкачать? Как скачать Варвары через торрент | UTorrent

% Раздел Тема Автор DL S | L
Кино СССР [ 2.18 GB ] Варвары | | DVDRip-AVC от AVP Studio AVP Studio Скачать
1 | 0
Кино СССР [ 2.18 GB ] Варвары | | DVDRip от AVP Studio AVP Studio Скачать
1 | 0

28-11-2019 20:33  

Отключить вcю реклaмy на сайте

    Дорогой пользователь! Огромная просьба, поблагодарите релизера, оцените раздачу и оставьте свои комментарий, если Вы скачали Варвары через торрент бесплатно!!
    Комментировать посты могут только пользователи прошедшие не сложную регистрацию
    Показать сообщения:    


    Варвары через торрент
    Скачать бесплатно Варвары
    Варвары скачать торрент
    Варвары смотреть онлайн
    Cкачать фильм Варвары бесплатно
    Варвары скачать торрент в хорошем качестве
    Варвары смотреть онлайн бесплатно в хорошем качестве
    Вы не можете начинать темы
    Вы не можете отвечать на сообщения
    Вы не можете редактировать свои сообщения
    Вы не можете удалять свои сообщения
    Вы не можете голосовать в опросах
    Вы не можете прикреплять файлы к сообщениям
    Вы можете скачивать файлы