Присоединяйтесь к нам в Telegram!, здесь всегда актуальный адрес сайта, оперативная поддержка и многое другое!!

>

5.9

iTunes

7.4

iTunes

9.4

1 сезон

1

7.4

2 сезон

7.2

iTunes

7.3

iTunes

13

6.1

iTunes

8.3

Пиратка

30

ULTIMATE

pack

9.9

Лицензия

ВАЖНО

ИГРА 18+

pack

7.3

RePack

MK11

7.7

RePack

jed

7.8

RePack

fifa19

8.5

RePack

RDR2

RePack

NEED FOR SPEED™ PAYBACK

5 сезон

9 сезон

Бесстыжие 9 сезон

Все сериалы

все сериалы на PB.wtf

RePack

FAR CRY 5

Anonymous, доброй ночи, мы катастрофически не успеваем собрать деньги на оплату серверов, помогите нам пожалуйста 5,10,15р., для нас важна любая помощь . В качестве благодарности мы отключим Вам всю рекламу на сайте (укажите свой ник в строку Ваше имя)!

×
  
Magnet ссылка

Пленница / The Captive (Атом Эгоян / Atom Egoyan) [2014, триллер, драма, BDRip-AVC от potroks] VO piratbit.org

Пленница через торрент piratbit.org

Раздают: 1 [ 0 KB/s ]
Размер: 2.18 GB | Добавлен: 5 лет 8 мес. назад | Торрент скачан:116 раз
Смотреть онлайн Пленница | Скачать    Ребята, помогите собрать деньги на оплату серверов!!!

15-03-2016 20:04 Пленница Скачать торрент  

Пленница / The Captive
«When hope is all you have»
Год выпуска: 2014
Страна: Канада / Ego Film Arts, The Film Farm
Жанр: триллер, драма
Продолжительность: 01:51:49
Перевод: Одноголосый закадровый [М.Чадов]
Субтитры: русские, английские
Навигация по главам: есть
Режиссер: Атом Эгоян / Atom Egoyan
В ролях:

Райан Рейнольдс (Matthew), Скотт Спидман (Jeffrey), Розарио Доусон (Nicole), Мирей Инос (Tina), Кевин Дюран (Mika), Алексия Фаст (Cass), Брюс Гринвуд (Vince), Кристин Хорн (Vicky), Арсинэ Ханджян (Diane), Пейтон Кеннеди (Young Cass), Эйдан Шипли (Albert), Пейдж Бэрил (Paige)
Описание: Фильм расскажет историю отца, который спустя восемь лет после похищения дочери начинает находить зацепки, намекающие на то, что семнадцатилетняя девушка может быть жива.

Качество: BDRip-AVC
Формат: MKV
Видео кодек: AVC
Аудио кодек: AC3
Видео: 1108x464 (2.40:1), 1895 kbps, 24 fps, 0.154 bit/pixel
Аудио#1: AC3 / 5.1 / 48 kHz / 448 kbps / 16 bit | RUS
Аудио#2: AC3 / 5.1 / 48 kHz / 448 kbps / 16 bit | ENG

Релиз группы:
Автор рипа: potroks

Код:

Общее
Уникальный идентификатор : 202773391249159135851238032453603916612 (0x988CBC0F9BD63210B0006F3DA0DF7B44)
Полное имя : Plennitca.2014.DUAL.BDRip.x264.-HELLYWOOD.mkv
Формат : Matroska
Версия формата : Version 4 / Version 2
Размер файла : 2,18 Гбайт
Продолжительность : 1 ч. 51 м.
Режим общего битрейта : Переменный
Общий поток : 2793 Кбит/сек
Название фильма : The Captive (2014) - HELLYWOOD
Дата кодирования : UTC 2016-03-15 19:54:24
Программа кодирования : mkvmerge v5.9.0 ('On The Loose') built on Dec 15 2012 16:39:58
Библиотека кодирования : libebml v1.3.0 + libmatroska v1.4.0

Видео
Идентификатор : 1
Формат : AVC
Формат/Информация : Advanced Video Codec
Профиль формата : High@L4.1
Параметр CABAC формата : Да
Параметр ReFrames формата : 5 кадров
Идентификатор кодека : V_MPEG4/ISO/AVC
Продолжительность : 1 ч. 51 м.
Вид битрейта : Переменный
Битрейт : 1895 Кбит/сек
Максимальный битрейт : 14,0 Мбит/сек
Ширина : 1108 пикселей
Высота : 464 пикселя
Соотношение сторон : 2,40:1
Режим частоты кадров : Постоянный
Частота кадров : 24,000 кадра/сек
Цветовое пространство : YUV
Субдискретизация насыщенности : 4:2:0
Битовая глубина : 8 бит
Тип развёртки : Прогрессивная
Бит/(Пиксели*Кадры) : 0.154
Размер потока : 1,44 Гбайт (66%)
Заголовок : potroks
Библиотека кодирования : x264 core 146 r2538 121396c
Настройки программы : cabac=1 / ref=6 / deblock=1:-2:-2 / analyse=0x3:0x113 / me=umh / subme=11 / psy=1 / psy_rd=1.00:0.05 / mixed_ref=1 / me_range=48 / chroma_me=1 / trellis=2 / 8x8dct=1 / cqm=0 / deadzone=21,11 / fast_pskip=0 / chroma_qp_offset=-3 / threads=9 / lookahead_threads=1 / sliced_threads=0 / nr=0 / decimate=1 / interlaced=0 / bluray_compat=1 / constrained_intra=0 / bframes=3 / b_pyramid=1 / b_adapt=2 / b_bias=0 / direct=3 / weightb=1 / open_gop=0 / weightp=1 / keyint=250 / keyint_min=1 / scenecut=40 / intra_refresh=0 / rc_lookahead=60 / rc=2pass / mbtree=0 / bitrate=1895 / ratetol=1.0 / qcomp=0.70 / qpmin=0 / qpmax=69 / qpstep=4 / cplxblur=20.0 / qblur=0.5 / vbv_maxrate=14000 / vbv_bufsize=14000 / nal_hrd=vbr / filler=0 / ip_ratio=1.35 / pb_ratio=1.25 / aq=1:0.80
Язык : English
Default : Да
Forced : Нет

Аудио #1
Идентификатор : 2
Формат : AC-3
Формат/Информация : Audio Coding 3
Расширение режима : CM (complete main)
Параметр Endianness формата : Big
Идентификатор кодека : A_AC3
Продолжительность : 1 ч. 51 м.
Вид битрейта : Постоянный
Битрейт : 448 Кбит/сек
Каналы : 6 каналов
Расположение каналов : Front: L C R, Side: L R, LFE
Частота : 48,0 КГц
Метод сжатия : С потерями
Размер потока : 358 Мбайт (16%)
Заголовок : VO | DD 5.1 @ 448 kbps - M.Chadov
Язык : Russian
Default : Да
Forced : Да

Аудио #2
Идентификатор : 3
Формат : AC-3
Формат/Информация : Audio Coding 3
Расширение режима : CM (complete main)
Параметр Endianness формата : Big
Идентификатор кодека : A_AC3
Продолжительность : 1 ч. 51 м.
Вид битрейта : Постоянный
Битрейт : 448 Кбит/сек
Каналы : 6 каналов
Расположение каналов : Front: L C R, Side: L R, LFE
Частота : 48,0 КГц
Метод сжатия : С потерями
Размер потока : 358 Мбайт (16%)
Заголовок : Original | DD 5.1 @ 448 kbps
Язык : English
Default : Нет
Forced : Нет

Текст #1
Идентификатор : 4
Формат : UTF-8
Идентификатор кодека : S_TEXT/UTF8
Идентификатор кодека/Информация : UTF-8 Plain Text
Язык : Russian
Default : Нет
Forced : Нет

Текст #2
Идентификатор : 5
Формат : UTF-8
Идентификатор кодека : S_TEXT/UTF8
Идентификатор кодека/Информация : UTF-8 Plain Text
Язык : English
Default : Нет
Forced : Нет

Меню
00:00:00.000 : en:Chapter 1
00:10:16.208 : en:Chapter 2
00:18:59.583 : en:Chapter 3
00:26:13.083 : en:Chapter 4
00:37:21.583 : en:Chapter 5
00:46:17.125 : en:Chapter 6
00:55:41.041 : en:Chapter 7
01:05:08.500 : en:Chapter 8
01:13:43.750 : en:Chapter 9
01:25:39.583 : en:Chapter 10
01:32:16.500 : en:Chapter 11
01:41:48.958 : en:Chapter 12

piratbit.org



Скачать Пленница через торрент http://i66.fastpic.ru/big/2015/1210/b7/7fd2e0cfe51c8ab7dde64e48429950b7.png Скачать, смотреть онлайн Пленница бесплантно в хорошем качестве Описание: Фильм расскажет историю отца, который спустя восемь лет после похищения дочери начинает находить зацепки, намекающие на то, что ... 7 10 6
Info! Золотая раздача, скачанное не засчитывается.
Торрент: Зарегистрирован [2016-03-15 20:04] · скачан: 116 раз
Статус: T временная
Размер: 2.18 GB
Как cкачать? Как скачать Пленница через торрент | UTorrent

% Раздел Тема Автор DL S | L
T Фильмы 2014 [DVDrip, WEB-DLRip, HDrip] [ 1.26 GB ] Пленница / The Captive [2014 BDRip-AVC] MVO potroks Скачать
1 | 0
Фильмы (Blu-ray, BD-Remux, HDDVD) [ 23.99 GB ] Пленница / The Captive [2014 Blu-Ray Remux] MVO Ворон Скачать
1 | 0
T Фильмы [HD 720p, 1080p] (Хороший звук DUB, MVO) [ 7.79 GB ] Пленница / The Captive [2014 BDRip 1080p] MVO Ворон Скачать
1 | 0
T Фильмы 2014 [DVDrip, WEB-DLRip, HDrip] [ 1.46 GB ] Пленница / The Captive [2014 HDRip] MVO - [Чистый звук] Newton5 Скачать
1 | 0

28-11-2019 20:33  

Отключить всю рекламу на сайте

    Дорогой пользователь! Огромная просьба, поблагодарите релизера, оцените раздачу и оставьте свои комментарий, если Вы скачали Пленница через торрент бесплатно!
    Комментировать посты могут только пользователи прошедшие не сложную регистрацию
    Показать сообщения:    

    Пленница через торрент
    Скачать бесплатно Пленница
    Пленница скачать торрент
    Пленница смотреть онлайн
    Cкачать фильм Пленница бесплатно
    Пленница скачать торрент в хорошем качестве
    Пленница смотреть онлайн бесплатно в хорошем качестве


    Вы не можете начинать темы
    Вы не можете отвечать на сообщения
    Вы не можете редактировать свои сообщения
    Вы не можете удалять свои сообщения
    Вы не можете голосовать в опросах
    Вы не можете прикреплять файлы к сообщениям
    Вы можете скачивать файлы