Доктор Стрэндж

Лицензия

Добыча

Дубляж

Дом дракона

1 сезон

Тор

Дубляж

В эфире

Дубляж

Там, где раки поют

MVO

Властелин колец

1 сезон

Deluxe

pack

Рекомендуем

30

Пиратка

ВАЖНО

ВАЖНО

Ghostwire

Пиратка

jed

RePack

nioh2

RePack

RDR2

RePack

NEED FOR SPEED™ PAYBACK

RePack

скачать торрент

Кинопоиск HD

Острые козырьки 6 сезон

6 сезон

FAR CRY 6

RePack

скачать торрент

Лицензия

скачать торрент

MVO

1

1 сезон

скачать торрент

1 сезон

скачать торрент

Лицензия

  

Спазм / Spasmo (Умберто Ленци) [1974, триллер, детектив, BDRip 720p ] VO

Спазм через торрент piratbit.org

Размер: 3.44 GB | Добавлен: 6 лет 8 мес. назад | Торрент скачан:14 раз
Смотреть онлайн | Скачать   

21-03-2016 05:28 Спазм Скачать торрент  

Название: Спазм
Оригинальное название: Spasmo
Год выпуска: 1974
Страна: Италия
Жанр: триллер, детектив
Продолжительность: 01:34:02
Перевод: любительский одноголосый

Режиссёр: Умберто Ленци

В ролях: Роберт Хоффманн, Сьюзи Кендалл, Иван Рассимов, Адольфо Ластретти, Моника Монет, Гуидо Альберти, Марио Эрпикини, Франко Силва, Мария Пиа Конте, Луиджи Антонио Гуэрра

Описание: Кристиан со своей подругой прогуливается по пустынному пляжу. Издалека они видят женское неподвижное тело. Подойдя ближе, они понимают, что девушка жива. На следующий день Кристиан видит её на яхте, на которой была вечеринка. Они влюбляются. Позднее, в близлежащем мотеле, к ним вламывается незнакомец с оружием и начинает избивать Кристиана. Кристиан случайно стреляет в него из его же пистолета. Несколько часов спустя они узнают, что труп исчез. Далее начинают происходить совсем странные вещи...



Качество: BDRip 720p Сравнение с исходником
Формат: MKV
Видео: MPEG-4 AVC, 4852 Кбит/с, 1280x544, 23,976 кадра/с
Аудио 1: русский, AC3, 192 kbps, 2 ch, 48 kHz [любительский одноголосый, Денис Метелев]
Аудио 2: английский, AC3, 192 kbps, 2 ch, 48 kHz [оригинал]
Субтитры 1: русские
Субтитры 2: английские
Общее
Уникальный идентификатор : 231283606650766016256007704425730562734 (0xADFF9A34E2862389896314D602DE5AAE)
Полное имя : D:\Video\Спазм.1974.BDRip.720p.mkv
Формат : Matroska
Версия формата : Version 4 / Version 2
Размер файла : 3,44 Гбайт
Продолжительность : 1 ч. 34 м.
Общий поток : 5238 Кбит/сек
Дата кодирования : UTC 2016-03-21 03:21:13
Программа кодирования : mkvmerge v8.2.0 ('World of Adventure') 64bit
Библиотека кодирования : libebml v1.3.1 + libmatroska v1.4.2

Видео
Идентификатор : 1
Формат : AVC
Формат/Информация : Advanced Video Codec
Профиль формата : High@L4.1
Параметр CABAC формата : Да
Параметр ReFrames формата : 9 кадров
Идентификатор кодека : V_MPEG4/ISO/AVC
Продолжительность : 1 ч. 34 м.
Битрейт : 4852 Кбит/сек
Ширина : 1280 пикселей
Высота : 544 пикселя
Соотношение сторон : 2,35:1
Режим частоты кадров : Постоянный
Частота кадров : 23,976 (24000/1001) кадра/сек
Цветовое пространство : YUV
Субдискретизация насыщенности : 4:2:0
Битовая глубина : 8 бит
Тип развёртки : Прогрессивная
Бит/(Пиксели*Кадры) : 0.291
Размер потока : 3,19 Гбайт (93%)
Библиотека кодирования : x264 core 146 r2538 121396c
Настройки программы : cabac=1 / ref=9 / deblock=1:-3:-3 / analyse=0x3:0x113 / me=umh / subme=10 / psy=1 / psy_rd=1.00:0.15 / mixed_ref=1 / me_range=32 / chroma_me=1 / trellis=2 / 8x8dct=1 / cqm=0 / deadzone=21,11 / fast_pskip=1 / chroma_qp_offset=-3 / threads=6 / lookahead_threads=1 / sliced_threads=0 / nr=0 / decimate=1 / interlaced=0 / bluray_compat=0 / constrained_intra=0 / bframes=11 / b_pyramid=2 / b_adapt=2 / b_bias=0 / direct=1 / weightb=1 / open_gop=0 / weightp=2 / keyint=230 / keyint_min=23 / scenecut=40 / intra_refresh=0 / rc_lookahead=40 / rc=crf / mbtree=0 / crf=21.5 / qcomp=0.60 / qpmin=0 / qpmax=69 / qpstep=4 / vbv_maxrate=40000 / vbv_bufsize=50000 / crf_max=0.0 / nal_hrd=none / filler=0 / ip_ratio=1.40 / pb_ratio=1.30 / aq=1:1.00
Язык : English
Default : Да
Forced : Нет

Аудио #1
Идентификатор : 2
Формат : AC-3
Формат/Информация : Audio Coding 3
Расширение режима : CM (complete main)
Параметр Endianness формата : Big
Идентификатор кодека : A_AC3
Продолжительность : 1 ч. 34 м.
Вид битрейта : Постоянный
Битрейт : 192 Кбит/сек
Каналы : 2 канала
Расположение каналов : Front: L R
Частота : 48,0 КГц
Частота кадров : 31,250 кадров/сек (1536 spf)
Метод сжатия : С потерями
Размер потока : 129 Мбайт (4%)
Заголовок : любительский одноголосый, Денис Метелев
Язык : Russian
Default : Да
Forced : Нет

Аудио #2
Идентификатор : 3
Формат : AC-3
Формат/Информация : Audio Coding 3
Расширение режима : CM (complete main)
Параметр Endianness формата : Big
Идентификатор кодека : A_AC3
Продолжительность : 1 ч. 34 м.
Вид битрейта : Постоянный
Битрейт : 192 Кбит/сек
Каналы : 2 канала
Расположение каналов : Front: L R
Частота : 48,0 КГц
Частота кадров : 31,250 кадров/сек (1536 spf)
Метод сжатия : С потерями
Размер потока : 129 Мбайт (4%)
Заголовок : Original
Язык : English
Default : Нет
Forced : Нет

Текст #1
Идентификатор : 4
Формат : UTF-8
Идентификатор кодека : S_TEXT/UTF8
Идентификатор кодека/Информация : UTF-8 Plain Text
Продолжительность : 1 ч. 32 м.
Битрейт : 74 бит/сек
Count of elements : 696
Размер потока : 51,0 Кбайт (0%)
Заголовок : русский
Язык : Russian
Default : Нет
Forced : Нет

Текст #2
Идентификатор : 5
Формат : UTF-8
Идентификатор кодека : S_TEXT/UTF8
Идентификатор кодека/Информация : UTF-8 Plain Text
Продолжительность : 1 ч. 32 м.
Битрейт : 42 бит/сек
Count of elements : 985
Размер потока : 28,5 Кбайт (0%)
Заголовок : английский
Default : Нет
Forced : Нет



Скачать Спазм через торрент http://s09.radikal.ru/i182/1603/1a/fd9ac7615f01.jpg Скачать, смотреть онлайн Спазм бесплантно в хорошем качестве Описание: Кристиан со своей подругой прогуливается по пустынному пляжу. Издалека они видят женское неподвижное тело. Подойдя ближе, они ... 5 10 1
Info! Золотая раздача, скачанное не засчитывается.
Торрент: Зарегистрирован [2016-03-21 05:28] · скачан: 14 раз
Статус: √ проверено
Размер: 3.44 GB
Как cкачать? Как скачать Спазм через торрент | UTorrent

% Раздел Тема Автор DL S | L
Фильмы [HD 720p, 1080p] (Звук Cam, VO, DVO) [ 13.42 GB ] Спазм / Spasmo | | 1080p msltel Скачать
1 | 0

28-11-2019 20:33  


Отключить вcю реклaмy на сайте, в т.ч. и в плеере онлайн просмотра!

    Дорогой пользователь! Огромная просьба, поблагодарите релизера, оцените раздачу и оставьте свои комментарий, если Вы скачали Спазм через торрент бесплатно!!
    Комментировать посты могут только пользователи прошедшие не сложную регистрацию
    Показать сообщения:    


    Спазм через торрент
    Скачать бесплатно Спазм
    Спазм скачать торрент
    Спазм смотреть онлайн
    Cкачать фильм Спазм бесплатно
    Спазм скачать торрент в хорошем качестве
    Спазм смотреть онлайн бесплатно в хорошем качестве
    Вы не можете начинать темы
    Вы не можете отвечать на сообщения
    Вы не можете редактировать свои сообщения
    Вы не можете удалять свои сообщения
    Вы не можете голосовать в опросах
    Вы не можете прикреплять файлы к сообщениям
    Вы можете скачивать файлы
    Спазм / Spasmo [1974, триллер, детектив, BDRip 720p ] VO смотреть онлайн, скачать торрент picoco.icu