Присоединяйтесь к нам в Telegram!, здесь всегда актуальный адрес сайта, оперативная поддержка и многое другое!!

>

5.9

iTunes

7.4

iTunes

9.4

1 сезон

1

7.4

2 сезон

7.2

iTunes

7.3

1 сезон

13

6.1

iTunes

8.3

GOG

30

ULTIMATE

pack

9.9

Лицензия

ВАЖНО

ИГРА 18+

pack

7.3

RePack

MK11

7.7

RePack

jed

7.8

RePack

fifa19

8.5

RePack

RDR2

RePack

NEED FOR SPEED™ PAYBACK

5 сезон

9 сезон

Бесстыжие 9 сезон

Все сериалы

все сериалы на PB.wtf

RePack

FAR CRY 5

Anonymous, добрый день, мы катастрофически не успеваем собрать деньги на оплату серверов, помогите нам пожалуйста 5,10,15р., для нас важна любая помощь . В качестве благодарности мы отключим Вам всю рекламу на сайте (укажите свой ник в строку Ваше имя)!

×
  
Magnet ссылка

Канал / The Channel (Том Льюис) [2016, Ужасы, триллер, драма WEB-DLRip] DVO (Без рекламы) piratbit.org

Канал через торрент piratbit.org

Размер: 702 MB | Добавлен: 5 лет 8 мес. назад | Торрент скачан:60 раз
Смотреть онлайн Канал | Скачать    Ребята, помогите собрать деньги на оплату серверов!!!

22-03-2016 20:10 Канал Скачать торрент  

Канал / The Channel
Год выпуска » 2016
Страна » США
Жанр » Ужасы, триллер, драма
Продолжительность » 01:34:41
Перевод » Двухголосый (любительский) • Parovoz Production
Субтитры » Отсутствуют

В ролях
» Ник Кларк, Эндрю Олсон, Кэрол Энн Уоттс, Коррин Эванс, Майрон Нэтвик, Ларрс Джексон, Донна Руш, Кимберли Спак

Режиссёр
» Том Льюис

» Пережив предсмертный опыт , подросток обнаруживает, что она стала каналом для входа злого духа в ее жизни.

• Качество » WEB-DLRip
• Формат » AVI
• Видео кодек » XviD
• Аудио кодек » MP3
• Видео » 720x400 (1.80:1), 25 fps, XviD build 64 ~894 kbps avg, 0.124 bit/pixel
• Аудио » Русский (MP3 / 2 ch / 128 kbps / 48,0 КГц / 16 bit )


Общее
Полное имя : C:\Users\DRON & LeXuZ\Desktop\Kanal.2016.L2.WEB-DLRip 700 mb.avi
Формат : AVI
Формат/Информация : Audio Video Interleave
Размер файла : 702 Мбайт
Продолжительность : 1 ч. 34 м.
Общий поток : 1036 Кбит/сек
Программа кодирования : Lavf54.63.104

Видео
Идентификатор : 0
Формат : xvid
Идентификатор кодека : xvid
Продолжительность : 1 ч. 34 м.
Битрейт : 895 Кбит/сек
Ширина : 720 пикселей
Высота : 400 пикселей
Соотношение сторон : 16:9
Частота кадров : 25,000 кадров/сек
Бит/(Пиксели*Кадры) : 0.124
Размер потока : 607 Мбайт (86%)

Аудио
Идентификатор : 1
Формат : MPEG Audio
Версия формата : Version 1
Профиль формата : Layer 3
Режим : Joint stereo
Идентификатор кодека : 55
Идентификатор кодека/Подсказка : MP3
Продолжительность : 1 ч. 34 м.
Вид битрейта : Постоянный
Битрейт : 128 Кбит/сек
Каналы : 2 канала
Частота : 48,0 КГц
Метод сжатия : С потерями
Размер потока : 86,7 Мбайт (12%)
Выравнивание : Соединение по промежуткам
Продолжительность промежутка : 24 мс. (0,60 видеокадр)
Библиотека кодирования : LAMEUљЪ№Ђ-Z Jsa|Д
[/code]
скриншот   скриншот   скриншот   скриншот   скриншот  
piratbit.org



Скачать Канал через торрент http://i74.fastpic.ru/big/2015/1218/b5/c39d072d168dbcde95d1a17f670689b5.gif Скачать, смотреть онлайн Канал бесплантно в хорошем качестве В ролях » Ник Кларк, Эндрю Олсон, Кэрол Энн Уоттс, Коррин Эванс, Майрон Нэтвик, Ларрс Джексон, Донна Руш, Кимберли Спак Режиссёр» Том ... 10 10 4
Торрент: Зарегистрирован [2016-03-22 20:34] · скачан: 60 раз
Статус: T временная
Размер: 702 MB
Как cкачать? Как скачать Канал через торрент | UTorrent

% Раздел Тема Автор DL S | L
T Фильмы 2016 (Звук TS, Cam, VO, DVO) [ 1.37 GB ] Канал / The Channel [2016 WEB-DLRip Любительский Релиз без рекламы! Ворон Скачать
1 | 0
Фильмы 2014 (Звук TS, Cam, VO, DVO) [ 1.4 GB ] Канал / The CAnal [2014 Ирландия HDRip Любительский [Xixidok] GEKADOL Скачать
1 | 0
T Фильмы 2014 (Звук TS, Cam, VO, DVO) [ 1.37 GB ] Канал / The CAnal [2014 Ирландия WEB-DLRip Любительский [Xixidok] GEKADOL Скачать
1 | 0

28-11-2019 20:33  

Отключить всю рекламу на сайте

    Дорогой пользователь! Огромная просьба, поблагодарите релизера, оцените раздачу и оставьте свои комментарий, если Вы скачали Канал через торрент бесплатно!
    Комментировать посты могут только пользователи прошедшие не сложную регистрацию
    Показать сообщения:    

    Канал через торрент
    Скачать бесплатно Канал
    Канал скачать торрент
    Канал смотреть онлайн
    Cкачать фильм Канал бесплатно
    Канал скачать торрент в хорошем качестве
    Канал смотреть онлайн бесплатно в хорошем качестве


    Вы не можете начинать темы
    Вы не можете отвечать на сообщения
    Вы не можете редактировать свои сообщения
    Вы не можете удалять свои сообщения
    Вы не можете голосовать в опросах
    Вы не можете прикреплять файлы к сообщениям
    Вы можете скачивать файлы