Присоединяйтесь к нам в Telegram!, здесь всегда актуальный адрес сайта, оперативная поддержка и многое другое!!

>

5.9

iTunes

7.4

iTunes

9.4

1 сезон

1

7.4

2 сезон

7.2

iTunes

7.3

1 сезон

13

6.1

iTunes

8.3

Пиратка

30

ULTIMATE

pack

9.9

Лицензия

ВАЖНО

ИГРА 18+

pack

7.3

RePack

MK11

7.7

RePack

jed

7.8

RePack

fifa19

8.5

RePack

RDR2

RePack

NEED FOR SPEED™ PAYBACK

5 сезон

9 сезон

Бесстыжие 9 сезон

Все сериалы

все сериалы на PB.wtf

RePack

FAR CRY 5

Anonymous, доброй ночи, мы катастрофически не успеваем собрать деньги на оплату серверов, помогите нам пожалуйста 5,10,15р., для нас важна любая помощь . В качестве благодарности мы отключим Вам всю рекламу на сайте (укажите свой ник в строку Ваше имя)!

×
  
Magnet ссылка

Все мои американцы / My All American (Анджело Пиццо ) [2015, драма, биография, спорт, HDRip] DVO piratbit.org

Все мои американцы через торрент piratbit.org

Размер: 1.46 GB | Добавлен: 5 лет 8 мес. назад | Торрент скачан:29 раз
Смотреть онлайн Все мои американцы | Скачать    Ребята, помогите собрать деньги на оплату серверов!!!

23-03-2016 10:13 Все мои американцы Скачать торрент  

Все мои американцы / My All American «Hope never quits»
Год выпуска » 2015
Страна » США
Жанр » драма, биография, спорт
Продолжительность » 01:58:00
Перевод » Двухголосый (любительский) • Parovoz Production
Субтитры » Отсутствуют

В ролях
» Аарон Экхарт, Финн Уиттрок, Робин Танни, Сара Болгер, Маккензи Миэн, Алекс МакНиколл, Брент Андерсон, Эмили Грэйс Данн, Майк Сэйтц, Донни Боас

Режиссёр
» Анджело Пиццо

» Правдивая история о судьбе молодого американца Фредди Стейнмарка, который грезил футболом, встретил людей, поверивших в его талант, и успешно играл на позиции защитника, пока спортивная травма не перевернула его жизнь.

• Качество » HDRip
• Формат » AVI
• Видео кодек » XviD
• Аудио кодек » AC-3
• Видео » XviD, 1550 Kb/s, 720x304, 23,976 кадра/сек
• Аудио » Русский (AC-3 / 2 ch / 192 kbps / 48,0 КГц / 16 bit )


Общее
Полное имя : F:\8sE.M0i.5iNd0Si.2015.L2.HDRip.1.45GB.avi
Формат : AVI
Формат/Информация : Audio Video Interleave
Размер файла : 1,46 Гбайт
Продолжительность : 1 ч. 58 м.
Общий поток : 1752 Кбит/сек
Программа кодирования : VirtualDubMod 1.5.10.3 | www.virtualdub-fr.org || (build 2550/release)
Библиотека кодирования : VirtualDubMod build 2550/release

Видео
Идентификатор : 0
Формат : MPEG-4 Visual
Профиль формата : Advanced Simple@L5
Параметр BVOP формата : 2
Параметр QPel формата : Нет
Параметр GMC формата : Без точки перехода
Параметр матрицы формата : Default (MPEG)
Идентификатор кодека : XVID
Идентификатор кодека/Подсказка : XviD
Продолжительность : 1 ч. 58 м.
Битрейт : 1550 Кбит/сек
Ширина : 720 пикселей
Высота : 304 пикселя
Соотношение сторон : 2,35:1
Частота кадров : 23,976 кадра/сек
Цветовое пространство : YUV
Субдискретизация насыщенности : 4:2:0
Битовая глубина : 8 бит
Тип развёртки : Прогрессивная
Метод сжатия : С потерями
Бит/(Пиксели*Кадры) : 0.295
Размер потока : 1,29 Гбайт (88%)
Библиотека кодирования : XviD 1.2.1 (UTC 2008-12-04)

Аудио
Идентификатор : 1
Формат : AC-3
Формат/Информация : Audio Coding 3
Расширение режима : CM (complete main)
Параметр Endianness формата : Big
Идентификатор кодека : 2000
Продолжительность : 1 ч. 58 м.
Вид битрейта : Постоянный
Битрейт : 192 Кбит/сек
Каналы : 2 канала
Расположение каналов : Front: L R
Частота : 48,0 КГц
Битовая глубина : 16 бит
Метод сжатия : С потерями
Размер потока : 163 Мбайт (11%)
Выравнивание : Разделение по промежуткам
Продолжительность промежутка : 42 мс. (1,00 видеокадр)
Время предзагрузки промежутка : 500 мс.
[/code]
скриншот   скриншот   скриншот  
Присутствуют вставки голосовой и текстовой рекламы.piratbit.org



Скачать Все мои американцы через торрент http://i74.fastpic.ru/big/2015/1218/b5/c39d072d168dbcde95d1a17f670689b5.gif Скачать, смотреть онлайн Все мои американцы бесплантно в хорошем качестве В ролях » Аарон Экхарт, Финн Уиттрок, Робин Танни, Сара Болгер, Маккензи Миэн, Алекс МакНиколл, Брент Андерсон, Эмили Грэйс Данн, Майк ... 5.5 10 4
Торрент: Зарегистрирован [2016-03-23 10:13] · скачан: 29 раз
Статус: T временная
Размер: 1.46 GB
Как cкачать? Как скачать Все мои американцы через торрент | UTorrent

% Раздел Тема Автор DL S | L
T Фильмы 2015 (Звук TS, Cam, VO, DVO) [ 712 MB ] Все мои американцы / My All American [2015 биография HDRip] DVO $-DRON-$ Скачать
1 | 0


Последний раз редактировалось: $-DRON-$ (2016-03-23 11:13), всего редактировалось 2 раз(а)

28-11-2019 20:33  

Отключить всю рекламу на сайте

23-03-2016 11:08 Все мои американцы Скачать торрент  

Цитата:

720x384

720х304

Цитата:

Длительность » 01:23:11

1 ч. 58 м.piratbit.org



    Дорогой пользователь! Огромная просьба, поблагодарите релизера, оцените раздачу и оставьте свои комментарий, если Вы скачали Все мои американцы через торрент бесплатно!
    Комментировать посты могут только пользователи прошедшие не сложную регистрацию
    Показать сообщения:    

    Все мои американцы через торрент
    Скачать бесплатно Все мои американцы
    Все мои американцы скачать торрент
    Все мои американцы смотреть онлайн
    Cкачать фильм Все мои американцы бесплатно
    Все мои американцы скачать торрент в хорошем качестве
    Все мои американцы смотреть онлайн бесплатно в хорошем качестве


    Вы не можете начинать темы
    Вы не можете отвечать на сообщения
    Вы не можете редактировать свои сообщения
    Вы не можете удалять свои сообщения
    Вы не можете голосовать в опросах
    Вы не можете прикреплять файлы к сообщениям
    Вы можете скачивать файлы