Присоединяйтесь к нам в Telegram!, здесь всегда актуальный адрес сайта, оперативная поддержка и многое другое!!

>

5.9

iTunes

7.4

iTunes

9.4

1 сезон

1

7.4

2 сезон

7.2

iTunes

7.3

1 сезон

13

6.1

iTunes

8.3

Пиратка

30

ULTIMATE

pack

9.9

Лицензия

ВАЖНО

ИГРА 18+

pack

7.3

RePack

MK11

7.7

RePack

jed

7.8

RePack

fifa19

8.5

RePack

RDR2

RePack

NEED FOR SPEED™ PAYBACK

5 сезон

9 сезон

Бесстыжие 9 сезон

Все сериалы

все сериалы на PB.wtf

RePack

FAR CRY 5

Anonymous, доброй ночи, мы катастрофически не успеваем собрать деньги на оплату серверов, помогите нам пожалуйста 5,10,15р., для нас важна любая помощь . В качестве благодарности мы отключим Вам всю рекламу на сайте (укажите свой ник в строку Ваше имя)!

×
  
Magnet ссылка

Все мои американцы / My All American (Анджело Пиццо ) [2015, драма, биография, спорт, HDRip] DVO (Без рекламы) piratbit.org

Все мои американцы через торрент piratbit.org

Размер: 712 MB | Добавлен: 5 лет 8 мес. назад | Торрент скачан:16 раз
Смотреть онлайн Все мои американцы | Скачать    Ребята, помогите собрать деньги на оплату серверов!!!

23-03-2016 10:23 Все мои американцы Скачать торрент  

Все мои американцы / My All American «Hope never quits»
Год выпуска » 2015
Страна » США
Жанр » драма, биография, спорт
Продолжительность » 01:58:00
Перевод » Двухголосый (любительский) • Parovoz Production
Субтитры » Отсутствуют

В ролях
» Аарон Экхарт, Финн Уиттрок, Робин Танни, Сара Болгер, Маккензи Миэн, Алекс МакНиколл, Брент Андерсон, Эмили Грэйс Данн, Майк Сэйтц, Донни Боас

Режиссёр
» Анджело Пиццо

» Правдивая история о судьбе молодого американца Фредди Стейнмарка, который грезил футболом, встретил людей, поверивших в его талант, и успешно играл на позиции защитника, пока спортивная травма не перевернула его жизнь.

• Качество » HDRip
• Формат » AVI
• Видео кодек » XviD
• Аудио кодек » MP3
• Видео » 640x272 (2.35:1), 23.976 fps, XviD build 67 ~702 kbps avg, 0.17 bit/pixel
• Аудио » Русский (MP3 / 2 ch / 128 kbps / 48,0 КГц / 16 bit )


Общее
Полное имя : C:\Users\DRON & LeXuZ\Desktop\Все мои американцы.avi
Формат : AVI
Формат/Информация : Audio Video Interleave
Размер файла : 712 Мбайт
Продолжительность : 1 ч. 58 м.
Общий поток : 840 Кбит/сек

Видео
Идентификатор : 0
Формат : MPEG-4 Visual
Профиль формата : Advanced Simple@L5
Параметр BVOP формата : 2
Параметр QPel формата : Нет
Параметр GMC формата : Без точки перехода
Параметр матрицы формата : Default (H.263)
Идентификатор кодека : XVID
Идентификатор кодека/Подсказка : XviD
Продолжительность : 1 ч. 58 м.
Битрейт : 703 Кбит/сек
Ширина : 640 пикселей
Высота : 272 пикселя
Соотношение сторон : 2,35:1
Частота кадров : 23,976 кадра/сек
Цветовое пространство : YUV
Субдискретизация насыщенности : 4:2:0
Битовая глубина : 8 бит
Тип развёртки : Прогрессивная
Метод сжатия : С потерями
Бит/(Пиксели*Кадры) : 0.168
Размер потока : 596 Мбайт (84%)
Библиотека кодирования : XviD 67

Аудио
Идентификатор : 1
Формат : MPEG Audio
Версия формата : Version 1
Профиль формата : Layer 3
Режим : Joint stereo
Идентификатор кодека : 55
Идентификатор кодека/Подсказка : MP3
Продолжительность : 1 ч. 58 м.
Вид битрейта : Постоянный
Битрейт : 128 Кбит/сек
Каналы : 2 канала
Частота : 48,0 КГц
Метод сжатия : С потерями
Размер потока : 108 Мбайт (15%)
Выравнивание : Соединение по промежуткам
Продолжительность промежутка : 42 мс. (1,00 видеокадр)
Время предзагрузки промежутка : 504 мс.
Библиотека кодирования : LAME3.99r
Настройки программы : -m j -V 4 -q 2 -lowpass 17 -b 128
[/code]
скриншот   скриншот   скриншот   скриншот   скриншот  
piratbit.org



Скачать Все мои американцы через торрент http://i74.fastpic.ru/big/2015/1218/b5/c39d072d168dbcde95d1a17f670689b5.gif Скачать, смотреть онлайн Все мои американцы бесплантно в хорошем качестве В ролях » Аарон Экхарт, Финн Уиттрок, Робин Танни, Сара Болгер, Маккензи Миэн, Алекс МакНиколл, Брент Андерсон, Эмили Грэйс Данн, Майк ... 7 10 3
Торрент: Зарегистрирован [2016-03-23 10:23] · скачан: 16 раз
Статус: T временная
Размер: 712 MB
Как cкачать? Как скачать Все мои американцы через торрент | UTorrent

% Раздел Тема Автор DL S | L
Фильмы 2015 [DVDrip, WEB-DLRip, HDrip] [ 1.46 GB ] Все мои американцы / My All American [2015 биография HDRip] [MVO] killermax2013 Скачать
1 | 0
Фильмы [HD 720p, 1080p] (Хороший звук DUB, MVO) [ 12 GB ] Все мои американцы / My All American [2015 биография BDRip 1080p] [MVO] killermax2013 Скачать
1 | 0
T Фильмы 2015 (Звук TS, Cam, VO, DVO) [ 1.46 GB ] Все мои американцы / My All American [2015 биография HDRip] DVO $-DRON-$ Скачать
1 | 0


Последний раз редактировалось: $-DRON-$ (2016-03-23 11:32), всего редактировалось 2 раз(а)

28-11-2019 20:33  

Отключить всю рекламу на сайте

23-03-2016 11:13 Все мои американцы Скачать торрент  

Цитата:

Длительность » 01:23:11

1 ч. 58 м.

Цитата:

(MP3 / 2 ch / 192 kbps / 48,0 КГц / 16 bit )

128 Кбит/секpiratbit.org



    Дорогой пользователь! Огромная просьба, поблагодарите релизера, оцените раздачу и оставьте свои комментарий, если Вы скачали Все мои американцы через торрент бесплатно!
    Комментировать посты могут только пользователи прошедшие не сложную регистрацию
    Показать сообщения:    

    Все мои американцы через торрент
    Скачать бесплатно Все мои американцы
    Все мои американцы скачать торрент
    Все мои американцы смотреть онлайн
    Cкачать фильм Все мои американцы бесплатно
    Все мои американцы скачать торрент в хорошем качестве
    Все мои американцы смотреть онлайн бесплатно в хорошем качестве


    Вы не можете начинать темы
    Вы не можете отвечать на сообщения
    Вы не можете редактировать свои сообщения
    Вы не можете удалять свои сообщения
    Вы не можете голосовать в опросах
    Вы не можете прикреплять файлы к сообщениям
    Вы можете скачивать файлы