Присоединяйтесь к нам в Telegram!, здесь всегда актуальный адрес сайта, оперативная поддержка и многое другое!!

>

5.9

iTunes

7.4

iTunes

9.4

1 сезон

1

7.4

2 сезон

7.2

iTunes

7.3

1 сезон

13

6.1

iTunes

8.3

GOG

30

ULTIMATE

pack

9.9

Лицензия

ВАЖНО

ИГРА 18+

pack

7.3

RePack

MK11

7.7

RePack

jed

7.8

RePack

fifa19

8.5

RePack

RDR2

RePack

NEED FOR SPEED™ PAYBACK

5 сезон

9 сезон

Бесстыжие 9 сезон

Все сериалы

все сериалы на PB.wtf

RePack

FAR CRY 5

Anonymous, доброй ночи, мы катастрофически не успеваем собрать деньги на оплату серверов, помогите нам пожалуйста 5,10,15р., для нас важна любая помощь . В качестве благодарности мы отключим Вам всю рекламу на сайте (укажите свой ник в строку Ваше имя)!

×
  
Magnet ссылка

Одержимость Авы / Ava's Possessions (Джордан Галлан) [2015, ужасы, фантастика, триллер, детектив, WEB-DLRip] DVO (Без рекламы) piratbit.org

Одержимость Авы через торрент piratbit.org

Размер: 1.45 GB | Добавлен: 5 лет 8 мес. назад | Торрент скачан:149 раз
Смотреть онлайн Одержимость Авы | Скачать    Ребята, помогите собрать деньги на оплату серверов!!!

23-03-2016 11:05 Одержимость Авы Скачать торрент  

Одержимость Авы / Ava's Possessions «Demons are a girl's best friend»
Год выпуска » 2015
Страна » США / ODD NY, Off Hollywood Pictures, Ravenous Films (II), Traction Media
Жанр » ужасы, фантастика, триллер, детектив
Продолжительность » 01:27:55
Перевод » Двухголосый (любительский) • [den904 & DeadSno]
Субтитры » Отсутствуют

В ролях
» Джемима Кёрк, Уильям Сэдлер, Кэрол Кейн, Алисия Райнер, Дэн Фоглер, Лу Тэйлор Пуччи, Луиса Краузе, Джоэль де ла Фуэнте, Уитни Эйбл, Дебора Раш

Режиссёр
» Джордан Галлан

» Девушка всеми своими силами пытается отойти от одержимости демонами...

• Качество » WEB-DLRip [рип с WEB-DL 720p]
• Формат » AVI
• Видео кодек » XviD
• Аудио кодек » AC-3
• Видео » 1961 kb/s, 720x304, 23.976 fps
• Аудио » Русский (AC-3/ 2 ch / 192 kbps / 48,0 КГц / 16 bit )
• Аудио » Английский (AC-3 / 2 ch / 192 kbps / 48,0 КГц / 16 bit)


Общее
Полное имя : F:\Avas.Possessions.2015.L2.WEB-DLRip.avi
Формат : AVI
Формат/Информация : Audio Video Interleave
Размер файла : 1,45 Гбайт
Продолжительность : 1 ч. 27 м.
Общий поток : 2359 Кбит/сек
Программа кодирования : VirtualDubMod 1.5.10.3 | www.virtualdub-fr.org || (build 2550/release)
Библиотека кодирования : VirtualDubMod build 2550/release

Видео
Идентификатор : 0
Формат : MPEG-4 Visual
Профиль формата : Advanced Simple@L5
Параметр BVOP формата : 1
Параметр QPel формата : Нет
Параметр GMC формата : Без точки перехода
Параметр матрицы формата : Выборочная
Идентификатор кодека : XVID
Идентификатор кодека/Подсказка : XviD
Продолжительность : 1 ч. 27 м.
Битрейт : 1961 Кбит/сек
Ширина : 720 пикселей
Высота : 304 пикселя
Соотношение сторон : 2,35:1
Частота кадров : 23,976 кадра/сек
Цветовое пространство : YUV
Субдискретизация насыщенности : 4:2:0
Битовая глубина : 8 бит
Тип развёртки : Прогрессивная
Метод сжатия : С потерями
Бит/(Пиксели*Кадры) : 0.374
Размер потока : 1,20 Гбайт (83%)
Библиотека кодирования : XviD 73

Аудио #1
Идентификатор : 1
Формат : AC-3
Формат/Информация : Audio Coding 3
Расширение режима : CM (complete main)
Параметр Endianness формата : Big
Идентификатор кодека : 2000
Продолжительность : 1 ч. 27 м.
Вид битрейта : Постоянный
Битрейт : 192 Кбит/сек
Каналы : 2 канала
Расположение каналов : Front: L R
Частота : 48,0 КГц
Битовая глубина : 16 бит
Метод сжатия : С потерями
Размер потока : 121 Мбайт (8%)
Выравнивание : Разделение по промежуткам
Продолжительность промежутка : 42 мс. (1,00 видеокадр)
Время предзагрузки промежутка : 500 мс.

Аудио #2
Идентификатор : 2
Формат : AC-3
Формат/Информация : Audio Coding 3
Расширение режима : CM (complete main)
Параметр Endianness формата : Big
Идентификатор кодека : 2000
Продолжительность : 1 ч. 27 м.
Вид битрейта : Постоянный
Битрейт : 192 Кбит/сек
Каналы : 2 канала
Расположение каналов : Front: L R
Частота : 48,0 КГц
Битовая глубина : 16 бит
Метод сжатия : С потерями
Размер потока : 121 Мбайт (8%)
Выравнивание : Разделение по промежуткам
Продолжительность промежутка : 42 мс. (1,00 видеокадр)
Время предзагрузки промежутка : 500 мс.
[/code]
скриншот   скриншот   скриншот   скриншот   скриншот  
piratbit.org



Скачать Одержимость Авы через торрент http://i74.fastpic.ru/big/2015/1218/b5/c39d072d168dbcde95d1a17f670689b5.gif Скачать, смотреть онлайн Одержимость Авы бесплантно в хорошем качестве В ролях » Джемима Кёрк, Уильям Сэдлер, Кэрол Кейн, Алисия Райнер, Дэн Фоглер, Лу Тэйлор Пуччи, Луиса Краузе, Джоэль де ла Фуэнте, Уитни ... 6.4 10 5
Торрент: Зарегистрирован [2016-03-23 11:05] · скачан: 149 раз
Статус: T временная
Размер: 1.45 GB
Как cкачать? Как скачать Одержимость Авы через торрент | UTorrent



Последний раз редактировалось: $-DRON-$ (2016-03-23 11:31), всего редактировалось 1 раз

28-11-2019 20:33  

Отключить всю рекламу на сайте

23-03-2016 11:28 Одержимость Авы Скачать торрент  

Цитата:

Аудио кодек » MP3

AC-3

Цитата:

Русский (MP3 / 2 ch / 192 kbps / 48,0 КГц / 16 bit )

AC-3piratbit.org



    Дорогой пользователь! Огромная просьба, поблагодарите релизера, оцените раздачу и оставьте свои комментарий, если Вы скачали Одержимость Авы через торрент бесплатно!
    Комментировать посты могут только пользователи прошедшие не сложную регистрацию
    Показать сообщения:    

    Одержимость Авы через торрент
    Скачать бесплатно Одержимость Авы
    Одержимость Авы скачать торрент
    Одержимость Авы смотреть онлайн
    Cкачать фильм Одержимость Авы бесплатно
    Одержимость Авы скачать торрент в хорошем качестве
    Одержимость Авы смотреть онлайн бесплатно в хорошем качестве


    Вы не можете начинать темы
    Вы не можете отвечать на сообщения
    Вы не можете редактировать свои сообщения
    Вы не можете удалять свои сообщения
    Вы не можете голосовать в опросах
    Вы не можете прикреплять файлы к сообщениям
    Вы можете скачивать файлы