Всегда рабочее зеркало без VPN и Proxy просто перед .vidak.icu напиши любое слово или цифру, Пример http://f7w.vidak.icu

>

7.4

iTunes

7.4

2 сезон

6.6

iTunes

1

7.4

2 сезон

7.2

iTunes

6.0

MVO

13

6.1

iTunes

8.3

Пиратка

30

ULTIMATE

pack

9.9

Лицензия

ВАЖНО

ИГРА 18+

pack

7.3

RePack

MK11

7.7

RePack

jed

7.8

RePack

fifa19

8.5

RePack

RDR2

RePack

NEED FOR SPEED™ PAYBACK

1 сезон

9 сезон

Бесстыжие 9 сезон

Все сериалы

все сериалы на PB.wtf

RePack

FAR CRY 5

Anonymous, добрый вечер, мы катастрофически не успеваем собрать деньги на оплату серверов, помогите нам пожалуйста 5,10,15р., для нас важна любая помощь . В качестве благодарности мы отключим Вам всю рекламу на сайте (укажите свой ник в строку Ваше имя)!

×
  
Magnet ссылка

Темный рыцарь: Возрождение легенды : Дилогия / Batman: The Dark Knight Returns : Dilogy [2012-2013, мультфильм, боевик, криминал, BDRip-AVC, 60fps, Dub, Original] R.G. HD-Films piratbit.org

Темный рыцарь: Возрождение легенды : Дилогия через торрент piratbit.org

Раздают: 1 [ 0 KB/s ] Качают: 1 [ 0 KB/s ]
Размер: 6.1 GB | Добавлен: 5 лет 10 мес. назад | Торрент скачан:354 раза
Смотреть онлайн Темный рыцарь: Возрождение легенды : Дилогия | Скачать    Ребята, помогите собрать деньги на оплату серверов!!!

26-03-2016 16:36 Темный рыцарь: Возрождение легенды : Дилогия Скачать торрент  

Темный рыцарь: Возрождение легенды. Часть 1 / Batman: The Dark Knight Returns, Part 1

Год выпуска: 2012
Страна: США
Жанр: мультфильм, боевик, криминал
Продолжительность: 01:16:22
Перевод: Дубляж, Оригинальный
Субтитры: русские (Полные), английские (Полные)
Режиссер: Джей Олива
В ролях: Питер Уэллер (Batman / Bruce Wayne, озвучка), Ариэль Уинтер (Robin / Carrie Kelley, озвучка), Дэвид Селби (Commissioner Gordon, озвучка), Уэйд Уильямс (Harvey Dent, озвучка), Карлос Аласраки (Hernando, озвучка), Ди Брэдли Бейкер (Don, озвучка), Пэйджет Брюстер (Lana Lang, озвучка), Мария Кэнелс-Баррера (Ellen Yindel, озвучка), Кэти Кавадини (Joanie, озвучка), Таунсенд Коулмэн (Morrie, озвучка), Грэй Гриффин (Anchor Carla, озвучка), Ричард Дойл (The Mayor, озвучка)
Описание:
Прошло 10 лет с тех пор как стареющий Бэтмен «ушел в отставку». Готэм в упадке и беззаконии. Теперь, когда городу так нужен его герой, Бэтмен наконец возвращается. В компании Кэрри Келли - девушки-супергероя - Бэтмен решает очистить улицы от банд мутантов, которые наводнили Готэм.
Рейтинг:

MPAA: PG-13 - Детям до 13 лет просмотр не желателен
Качество: BDRip-AVC 60fps
Формат: MKV
Видео: AVC, 1024x576 (16:9), 4830 kbps, 60 fps, 0,137 bpp
Аудио 1: русский / AC3 / 2.0 / 48 kHz / 192 kbps / 16 bit
Аудио 2: английский / AC3 / 5.1 / 48 kHz / 640 kbps / 16 bit |Оригинал (Отдельно в папке)|
Навигация по главам: есть

General
Unique ID : 185271321777113882772454533175521544347 (0x8B61F569BCC6284E85DFCFA21767889B)
Complete name : D:\Темный рыцарь Возрождение легенды BDRip-AVC 60fps R.G. HD-Films\Часть 1.mkv
Format : Matroska
Format version : Version 4 / Version 2
File size : 2.73 GiB
Duration : 1h 16mn
Overall bit rate mode : Variable
Overall bit rate : 5 125 Kbps
Movie name : Tiberiumsun69
Encoded date : UTC 2016-03-26 05:02:22
Writing application : mkvmerge v8.3.0 ('Over the Horizon') 64bit
Writing library : libebml v1.3.1 + libmatroska v1.4.2
DURATION : 01:16:11.107000000
NUMBER_OF_FRAMES : 848
NUMBER_OF_BYTES : 32007
_STATISTICS_WRITING_APP : mkvmerge v8.3.0 ('Over the Horizon') 64bit
_STATISTICS_WRITING_DATE_UTC : 2016-03-26 05:02:22
_STATISTICS_TAGS : BPS DURATION NUMBER_OF_FRAMES NUMBER_OF_BYTES
Attachment : Yes

Video
ID : 1
Format : AVC
Format/Info : Advanced Video Codec
Format profile : High@L4.1
Format settings, CABAC : Yes
Format settings, ReFrames : 3 frames
Format settings, GOP : M=3, N=60
Codec ID : V_MPEG4/ISO/AVC
Duration : 1h 16mn
Bit rate mode : Variable
Bit rate : 4 831 Kbps
Maximum bit rate : 5 000 Kbps
Width : 1 024 pixels
Height : 576 pixels
Display aspect ratio : 16:9
Frame rate : 60.000 fps
Standard : NTSC
Color space : YUV
Chroma subsampling : 4:2:0
Bit depth : 8 bits
Scan type : Progressive
Bits/(Pixel*Frame) : 0.137
Stream size : 2.58 GiB (94%)
Title : Tiberiumsun69
Language : English
Default : Yes
Forced : No
Color primaries : BT.470-6 System B, BT.470-6 System G, BT.601-6 625, BT.1358 625, BT.1700 625 PAL, BT.1700 625 SECAM
Transfer characteristics : BT.470-6 System B, BT.470-6 System G
Matrix coefficients : BT.470-6 System B, BT.470-6 System G, BT.601-6 625, BT.1358 625, BT.1700 625 PAL, BT.1700 625 SECAM, IEC 61966-2-4 601

Audio
ID : 2
Format : AC-3
Format/Info : Audio Coding 3
Mode extension : CM (complete main)
Codec ID : A_AC3
Duration : 1h 16mn
Bit rate mode : Constant
Bit rate : 192 Kbps
Channel(s) : 2 channels
Channel positions : Front: L R
Sampling rate : 48.0 KHz
Bit depth : 16 bits
Compression mode : Lossy
Stream size : 105 MiB (4%)
Title : Дубляж
Language : Russian
Default : Yes
Forced : No

Text #1
ID : 3
Format : UTF-8
Codec ID : S_TEXT/UTF8
Codec ID/Info : UTF-8 Plain Text
Title : Полные
Language : Russian
Default : No
Forced : No

Text #2
ID : 4
Format : UTF-8
Codec ID : S_TEXT/UTF8
Codec ID/Info : UTF-8 Plain Text
Title : Полные
Language : English
Default : No
Forced : No

Menu
00:00:00.000 : en:00:00:00.000
00:10:16.533 : en:00:10:16.533
00:18:49.295 : en:00:18:49.295
00:29:03.700 : en:00:29:03.700
00:39:39.919 : en:00:39:39.919
00:50:44.208 : en:00:50:44.208
00:59:19.389 : en:00:59:19.389
01:10:53.708 : en:01:10:53.708
01:12:59.792 : en:01:12:59.792
Темный рыцарь: Возрождение легенды. Часть 2 / Batman: The Dark Knight Returns, Part 2

Год выпуска: 2013
Страна: США
Жанр: мультфильм, боевик, триллер, криминал
Продолжительность: 01:15:49
Перевод: Дубляж, Оригинальный
Субтитры: русские (Полные), английские (Полные)
Режиссер: Джей Олива
В ролях: Питер Уэллер (Batman / Bruce Wayne, озвучка), Ариэль Уинтер (Robin / Carrie Kelley, озвучка), Майкл Эмерсон (Joker, озвучка), Дэвид Селби (Commissioner Gordon, озвучка), Марк Вэлли (Superman / Clark Kent, озвучка), Карлос Аласраки (Congressman Noches, озвучка), Ди Брэдли Бейкер (Don, озвучка), Пэйджет Брюстер (Lana Lang, озвучка), Мария Кэнелс-Баррера (Ellen Yindel, озвучка), Таунсенд Коулмэн (Morrie / Abner, озвучка), Грэй Гриффин (Anchor Carla / Sarah Essen-Gordon, озвучка), Робин Аткин Даунс (Oliver Queen, озвучка)
Описание:
Прошло 10 лет с тех пор как стареющий Бэтмен «ушел в отставку». Готэм в упадке и беззаконии. Теперь, когда городу так нужен его герой, Бэтмен наконец возвращается. В компании Кэрри Келли - девушки-супергероя - Бэтмен решает очистить улицы от банд мутантов, которые наводнили Готэм. После того, как Бэтмен дал отпор своим злейшим врагам Джокеру и Двуликому, он вступает в смертельный бой с бывшим союзником - Суперменом. В этой схватке победит только один.
Рейтинг:

MPAA: PG-13 - Детям до 13 лет просмотр не желателен
Качество: BDRip-AVC 60fps
Формат: MKV
Видео: AVC, 1024x576 (16:9), 4785 kbps, 60 fps, 0,135 bpp
Аудио 1: русский / AC3 / 2.0 / 48 kHz / 192 kbps / 16 bit
Аудио 2: английский / AC3 / 5.1 / 48 kHz / 640 kbps / 16 bit |Оригинал (Отдельно в папке)|
Навигация по главам: есть

General
Unique ID : 203167782654449118560144407680541843893 (0x98D8B10EFC0B9CE4A12C1B5D8F08E1B5)
Complete name : D:\Темный рыцарь Возрождение легенды BDRip-AVC 60fps R.G. HD-Films\Часть 2.mkv
Format : Matroska
Format version : Version 4 / Version 2
File size : 2.69 GiB
Duration : 1h 15mn
Overall bit rate mode : Variable
Overall bit rate : 5 079 Kbps
Movie name : Tiberiumsun69
Encoded date : UTC 2016-03-26 05:22:42
Writing application : mkvmerge v8.3.0 ('Over the Horizon') 64bit
Writing library : libebml v1.3.1 + libmatroska v1.4.2
DURATION : 01:15:42.167000000
NUMBER_OF_FRAMES : 689
NUMBER_OF_BYTES : 43045
_STATISTICS_WRITING_APP : mkvmerge v8.3.0 ('Over the Horizon') 64bit
_STATISTICS_WRITING_DATE_UTC : 2016-03-26 05:22:42
_STATISTICS_TAGS : BPS DURATION NUMBER_OF_FRAMES NUMBER_OF_BYTES
Attachment : Yes

Video
ID : 1
Format : AVC
Format/Info : Advanced Video Codec
Format profile : High@L4.1
Format settings, CABAC : Yes
Format settings, ReFrames : 3 frames
Format settings, GOP : M=3, N=60
Codec ID : V_MPEG4/ISO/AVC
Duration : 1h 15mn
Bit rate mode : Variable
Bit rate : 4 786 Kbps
Maximum bit rate : 5 000 Kbps
Width : 1 024 pixels
Height : 576 pixels
Display aspect ratio : 16:9
Frame rate : 60.000 fps
Standard : NTSC
Color space : YUV
Chroma subsampling : 4:2:0
Bit depth : 8 bits
Scan type : Progressive
Bits/(Pixel*Frame) : 0.135
Stream size : 2.53 GiB (94%)
Title : Tiberiumsun69
Language : English
Default : Yes
Forced : No
Color primaries : BT.470-6 System B, BT.470-6 System G, BT.601-6 625, BT.1358 625, BT.1700 625 PAL, BT.1700 625 SECAM
Transfer characteristics : BT.470-6 System B, BT.470-6 System G
Matrix coefficients : BT.470-6 System B, BT.470-6 System G, BT.601-6 625, BT.1358 625, BT.1700 625 PAL, BT.1700 625 SECAM, IEC 61966-2-4 601

Audio
ID : 2
Format : AC-3
Format/Info : Audio Coding 3
Format profile : Dolby Digital
Mode extension : CM (complete main)
Codec ID : A_AC3
Duration : 1h 15mn
Bit rate mode : Constant
Bit rate : 192 Kbps
Channel(s) : 2 channels
Channel positions : Front: L R
Sampling rate : 48.0 KHz
Bit depth : 16 bits
Compression mode : Lossy
Stream size : 104 MiB (4%)
Title : Дубляж
Language : Russian
Default : Yes
Forced : Yes

Text #1
ID : 3
Format : UTF-8
Codec ID : S_TEXT/UTF8
Codec ID/Info : UTF-8 Plain Text
Title : Полные
Language : Russian
Default : No
Forced : No

Text #2
ID : 4
Format : UTF-8
Codec ID : S_TEXT/UTF8
Codec ID/Info : UTF-8 Plain Text
Title : Полные
Language : English
Default : No
Forced : No

Menu
00:00:00.000 : en:00:00:00.000
00:09:48.296 : en:00:09:48.296
00:19:40.763 : en:00:19:40.763
00:31:00.442 : en:00:31:00.442
00:38:56.334 : en:00:38:56.334
00:48:59.145 : en:00:48:59.145
00:59:12.799 : en:00:59:12.799
01:08:50.918 : en:01:08:50.918
01:12:29.554 : en:01:12:29.554
Просьба к переливающим на другие сайты, в оформлении указывайте пожалуйста авторство группы
Авторская группа в ВК
piratbit.org



Скачать Темный рыцарь: Возрождение легенды : Дилогия через торрент http://i74.fastpic.ru/big/2016/0326/c1/13481998cb8ba6b115c4b438214546c1.png Скачать, смотреть онлайн Темный рыцарь: Возрождение легенды : Дилогия бесплантно в хорошем качестве Описание: Прошло 10 лет с тех пор как стареющий Бэтмен «ушел в отставку». Готэм в упадке и беззаконии. Теперь, когда городу так нужен его ... 9.3 10 17
Info! Золотая раздача, скачанное не засчитывается.
Торрент: Зарегистрирован [2016-03-26 16:36] · скачан: 354 раз
Статус: √ проверено
Размер: 6.1 GB
Как cкачать? Как скачать Темный рыцарь: Возрождение легенды : Дилогия через торрент | UTorrent

% Раздел Тема Автор DL S | L
Мультфильмы (48-60 fps) [ 21.16 GB ] Темный рыцарь: Возрождение легенды : Дилогия / Batman: The Dark Knight Returns : Dilogy [2012-2013 мультфильм BDRip 1080p 60fps Dub Original] R.G. HD-Films Tiberiumsun69 Скачать
2 | 1
Мультфильмы (48-60 fps) [ 10.41 GB ] Темный рыцарь: Возрождение легенды : Дилогия / Batman: The Dark Knight Returns : Dilogy [2012-2013 мультфильм BDRip 720p 60fps Dub Original] R.G. HD-Films Tiberiumsun69 Скачать
1 | 1


Последний раз редактировалось: Tiberiumsun69 (2018-02-09 08:39), всего редактировалось 1 раз

28-11-2019 20:33  

Отключить всю рекламу на сайте

26-03-2016 16:37 Темный рыцарь: Возрождение легенды : Дилогия Скачать торрент  

Всем приятного просмотра.)piratbit.org



26-03-2016 19:28 Темный рыцарь: Возрождение легенды : Дилогия Скачать торрент  

Отличный мульт! Всем советую. Мультфильмы у DC реально лучше фильмов получаются!piratbit.org



    Дорогой пользователь! Огромная просьба, поблагодарите релизера, оцените раздачу и оставьте свои комментарий, если Вы скачали Темный рыцарь: Возрождение легенды : Дилогия через торрент бесплатно!
    Комментировать посты могут только пользователи прошедшие не сложную регистрацию
    Показать сообщения:    

    Темный рыцарь: Возрождение легенды : Дилогия через торрент
    Скачать бесплатно Темный рыцарь: Возрождение легенды : Дилогия
    Темный рыцарь: Возрождение легенды : Дилогия скачать торрент
    Темный рыцарь: Возрождение легенды : Дилогия смотреть онлайн
    Cкачать фильм Темный рыцарь: Возрождение легенды : Дилогия бесплатно
    Темный рыцарь: Возрождение легенды : Дилогия скачать торрент в хорошем качестве
    Темный рыцарь: Возрождение легенды : Дилогия смотреть онлайн бесплатно в хорошем качестве


    Вы не можете начинать темы
    Вы не можете отвечать на сообщения
    Вы не можете редактировать свои сообщения
    Вы не можете удалять свои сообщения
    Вы не можете голосовать в опросах
    Вы не можете прикреплять файлы к сообщениям
    Вы можете скачивать файлы