Присоединяйтесь к нам в Telegram!, здесь всегда актуальный адрес сайта, оперативная поддержка и многое другое!!

>

5.9

iTunes

7.4

iTunes

9.4

1 сезон

1

7.4

2 сезон

7.2

iTunes

7.3

1 сезон

13

6.1

iTunes

8.3

Пиратка

30

ULTIMATE

pack

9.9

Лицензия

ВАЖНО

ИГРА 18+

pack

7.3

RePack

MK11

7.7

RePack

jed

7.8

RePack

fifa19

8.5

RePack

RDR2

RePack

NEED FOR SPEED™ PAYBACK

5 сезон

9 сезон

Бесстыжие 9 сезон

Все сериалы

все сериалы на PB.wtf

RePack

FAR CRY 5

Anonymous, доброй ночи, мы катастрофически не успеваем собрать деньги на оплату серверов, помогите нам пожалуйста 5,10,15р., для нас важна любая помощь . В качестве благодарности мы отключим Вам всю рекламу на сайте (укажите свой ник в строку Ваше имя)!

×
  
Magnet ссылка

Грешная земля / Unhallowed Ground (Расселл Инглэнд) [2015, ужасы, триллер, HDRip, Любительский (двухголосый) [Релиз без рекламы] piratbit.org

Грешная земля через торрент piratbit.org

Раздают: 2 [ 0 KB/s ]
Размер: 1.37 GB | Добавлен: 5 лет 8 мес. назад | Торрент скачан:206 раз
Смотреть онлайн Грешная земля | Скачать    Ребята, помогите собрать деньги на оплату серверов!!!

26-03-2016 19:16 Грешная земля Скачать торрент  


Грешная земля / Unhallowed Ground
««For 350 years it has waited»»

ИНФОРМАЦИЯ:
Год выпуска:2015
Страна: Великобритания
Жанр: ужасы, триллер
Продолжительность: 01:33:01
Перевод: Любительский (двухголосый)
Режиссер: Расселл Инглэнд

В Ролях:


Амит Чана (Jazz), Поппи Дрейтон (Verity Wickes), Маркус Гриффитс (Aki Adebola), Томас Ло (Daniel Gordon), Эндрю Льюис (Dr. Carmichael), Рейчел Петладвала (Meena Shah), Моргана Полански (Sophie Dunant), Paul Raschid (Rishi Patel), Уилл Торп (Shane), Ричард Деррингтон (Dr. Richard Graystone), Джил Коэн-Аллоро (Plague Doctor), Jacob James Beswick (Hanged Spirit)

Описание:
Группа привилегированных студентов хочет провести ночь патрулируя престижную Dhoultham школу. Однако вскоре превращается в наихудшую ночь своей жизни, когда они столкнулись с взломщиком, сверхъестественных духов и зла.

  • Мировая премьера:25 апреля 2015

    ТЕХ.ДАННЫЕ:
    Качество: HDRip
    Формат: AVI
    Видео: XviD, 720x304 (2.35:1), 1752 kbps, 25 fps, 0,320 bpp
    Аудио: MP3 / 2.0 / 48 kHz / 256 kbps /


    General
    Complete name : D:\Торенты\Unhallowed.Ground.2015.L2.HDRip.avi
    Format : AVI
    Format/Info : Audio Video Interleave
    File size : 1.37 GiB
    Duration : 1h 33mn
    Overall bit rate : 2 101 Kbps
    Writing application : VirtualDubMod 1.5.10.3 | www.virtualdub-fr.org || (build 2550/release)
    Writing library : VirtualDubMod build 2550/release

    Video
    ID : 0
    Format : MPEG-4 Visual
    Format profile : Advanced Simple@L5
    Format settings, BVOP : 2
    Format settings, QPel : No
    Format settings, GMC : No warppoints
    Format settings, Matrix : Custom
    Codec ID : XVID
    Codec ID/Hint : XviD
    Duration : 1h 33mn
    Bit rate : 1 753 Kbps
    Width : 720 pixels
    Height : 304 pixels
    Display aspect ratio : 2.35:1
    Frame rate : 25.000 fps
    Color space : YUV
    Chroma subsampling : 4:2:0
    Bit depth : 8 bits
    Scan type : Progressive
    Compression mode : Lossy
    Bits/(Pixel*Frame) : 0.320
    Stream size : 1.14 GiB (83%)
    Writing library : XviD 1.2.1 (UTC 2008-12-04)

    Audio
    ID : 1
    Format : MPEG Audio
    Format version : Version 1
    Format profile : Layer 3
    Mode : Joint stereo
    Codec ID : 55
    Codec ID/Hint : MP3
    Duration : 1h 33mn
    Bit rate mode : Constant
    Bit rate : 256 Kbps
    Channel(s) : 2 channels
    Sampling rate : 48.0 KHz
    Compression mode : Lossy
    Stream size : 170 MiB (12%)
    Alignment : Aligned on interleaves
    Скриншоты:

    © Оформление by .::Ворон::.
    piratbit.org



  • Скачать Грешная земля через торрент https://pic1.kartinco.top/images/61/ordi9.jpg Скачать, смотреть онлайн Грешная земля бесплантно в хорошем качестве Описание: Группа привилегированных студентов хочет провести ночь патрулируя престижную Dhoultham школу. Однако вскоре превращается в ... 5.5 10 4
    Торрент: Зарегистрирован [2016-03-26 19:16] · скачан: 206 раз
    Статус: T временная
    Размер: 1.37 GB
    Как cкачать? Как скачать Грешная земля через торрент | UTorrent

    28-11-2019 20:33  

    Отключить всю рекламу на сайте

    27-03-2016 14:29 Грешная земля Скачать торрент  

    ... столкнулись с взломщиком, сверхъестественных духов и зла.
    - Заинтриговал.piratbit.org



      Дорогой пользователь! Огромная просьба, поблагодарите релизера, оцените раздачу и оставьте свои комментарий, если Вы скачали Грешная земля через торрент бесплатно!
      Комментировать посты могут только пользователи прошедшие не сложную регистрацию
      Показать сообщения:    

      Грешная земля через торрент
      Скачать бесплатно Грешная земля
      Грешная земля скачать торрент
      Грешная земля смотреть онлайн
      Cкачать фильм Грешная земля бесплатно
      Грешная земля скачать торрент в хорошем качестве
      Грешная земля смотреть онлайн бесплатно в хорошем качестве


      Вы не можете начинать темы
      Вы не можете отвечать на сообщения
      Вы не можете редактировать свои сообщения
      Вы не можете удалять свои сообщения
      Вы не можете голосовать в опросах
      Вы не можете прикреплять файлы к сообщениям
      Вы можете скачивать файлы