Доктор Стрэндж

Лицензия

Добыча

Дубляж

Уэнсдэй

1 сезон

Тор

Дубляж

В эфире

Дубляж

Там, где раки поют

MVO

Властелин колец

1 сезон

Deluxe

pack

Рекомендуем

30

Пиратка

ВАЖНО

ВАЖНО

Ghostwire

Пиратка

jed

RePack

nioh2

RePack

RDR2

RePack

NEED FOR SPEED™ PAYBACK

RePack

скачать торрент

Кинопоиск HD

Острые козырьки 6 сезон

6 сезон

FAR CRY 6

RePack

скачать торрент

Лицензия

скачать торрент

MVO

1

1 сезон

скачать торрент

1 сезон

скачать торрент

Лицензия

  

Хлеб и шоколад / Pane e cioccolata (Франко Брузати) [1973, драма, комедия, BDRip 720p ] VO

Хлеб и шоколад через торрент piratbit.org

Размер: 4.74 GB | Добавлен: 6 лет 8 мес. назад | Торрент скачан:20 раз
Смотреть онлайн | Скачать   

27-03-2016 09:33 Хлеб и шоколад Скачать торрент  

Название: Хлеб и шоколад
Оригинальное название: Pane e cioccolata
Год выпуска: 1973
Страна: Италия
Жанр: драма, комедия
Продолжительность: 01:55:50
Перевод: любительский одноголосый

Режиссёр: Франко Брузати

В ролях: Нино Манфреди, Джонни Дорелли, Анна Карина, Паоло Турко, Уго д'Алессио, Джанфранко Барра, Джорджо Черони, Франческо д'Адда, Нелида Джамарко

Описание: Нелегко итальянскому эмигранту в Швейцарии. Местное население не жалует приезжих, да и конкуренты из Турции, Испании и других стран не дают расслабляться. Нино Гарофоли приехал в благополучную Швейцарию в поисках заработка для своей семьи. Но не везет ему. То его подозревают в убийстве, то случайно фотографируют, когда он после допроса помочился на улице. В результате он скатывается вниз по социальной лестнице от официанта в престижном ресторане до положения нелегала на загородной ферме. Попутно он теряет все свои деньги, отдав их земляку-миллионеру, который разорился и покончил с собой. Женщина, с которой у него наметился роман, выходит замуж за швейцарца. Но Нино не сдается и борется до последнего...



Качество: BDRip 720p Сравнение с исходником
Формат: MKV
Видео: MPEG-4 AVC, 5476 Кбит/с, 1280x690, 23,976 кадра/с
Аудио 1: русский, AC3, 192 kbps, 2 ch, 48 kHz [любительский одноголосый, Василий Кошкин]
Аудио 2: итальянский, AC3, 192 kbps, 2 ch, 48 kHz [оригинал]
Субтитры: английские
Общее
Уникальный идентификатор : 230455376014758359270438202573831187252 (0xAD60174893AA24339BF9230474B6AB34)
Полное имя : D:\Video\Хлеб и шоколад.1973.BDRip.720p.mkv
Формат : Matroska
Версия формата : Version 4 / Version 2
Размер файла : 4,74 Гбайт
Продолжительность : 1 ч. 55 м.
Общий поток : 5862 Кбит/сек
Дата кодирования : UTC 2016-03-27 04:05:16
Программа кодирования : mkvmerge v8.2.0 ('World of Adventure') 64bit
Библиотека кодирования : libebml v1.3.1 + libmatroska v1.4.2

Видео
Идентификатор : 1
Формат : AVC
Формат/Информация : Advanced Video Codec
Профиль формата : High@L4.1
Параметр CABAC формата : Да
Параметр ReFrames формата : 9 кадров
Идентификатор кодека : V_MPEG4/ISO/AVC
Продолжительность : 1 ч. 55 м.
Битрейт : 5476 Кбит/сек
Ширина : 1280 пикселей
Высота : 690 пикселей
Соотношение сторон : 1,85:1
Режим частоты кадров : Постоянный
Частота кадров : 23,976 (24000/1001) кадра/сек
Цветовое пространство : YUV
Субдискретизация насыщенности : 4:2:0
Битовая глубина : 8 бит
Тип развёртки : Прогрессивная
Бит/(Пиксели*Кадры) : 0.259
Размер потока : 4,43 Гбайт (93%)
Библиотека кодирования : x264 core 146 r2538 121396c
Настройки программы : cabac=1 / ref=9 / deblock=1:-3:-3 / analyse=0x3:0x113 / me=umh / subme=10 / psy=1 / psy_rd=1.00:0.15 / mixed_ref=1 / me_range=32 / chroma_me=1 / trellis=2 / 8x8dct=1 / cqm=0 / deadzone=21,11 / fast_pskip=1 / chroma_qp_offset=-3 / threads=6 / lookahead_threads=1 / sliced_threads=0 / nr=0 / decimate=1 / interlaced=0 / bluray_compat=0 / constrained_intra=0 / bframes=11 / b_pyramid=2 / b_adapt=2 / b_bias=0 / direct=1 / weightb=1 / open_gop=0 / weightp=2 / keyint=230 / keyint_min=23 / scenecut=40 / intra_refresh=0 / rc_lookahead=40 / rc=crf / mbtree=0 / crf=19.5 / qcomp=0.60 / qpmin=0 / qpmax=69 / qpstep=4 / vbv_maxrate=40000 / vbv_bufsize=50000 / crf_max=0.0 / nal_hrd=none / filler=0 / ip_ratio=1.40 / pb_ratio=1.30 / aq=1:1.00
Язык : Italian
Default : Да
Forced : Нет

Аудио #1
Идентификатор : 2
Формат : AC-3
Формат/Информация : Audio Coding 3
Расширение режима : CM (complete main)
Параметр Endianness формата : Big
Идентификатор кодека : A_AC3
Продолжительность : 1 ч. 55 м.
Вид битрейта : Постоянный
Битрейт : 192 Кбит/сек
Каналы : 2 канала
Расположение каналов : Front: L R
Частота : 48,0 КГц
Частота кадров : 31,250 кадров/сек (1536 spf)
Метод сжатия : С потерями
Размер потока : 159 Мбайт (3%)
Заголовок : любительский одноголосый, Василий Кошкин
Язык : Russian
Default : Да
Forced : Нет

Аудио #2
Идентификатор : 3
Формат : AC-3
Формат/Информация : Audio Coding 3
Расширение режима : CM (complete main)
Параметр Endianness формата : Big
Идентификатор кодека : A_AC3
Продолжительность : 1 ч. 55 м.
Вид битрейта : Постоянный
Битрейт : 192 Кбит/сек
Каналы : 2 канала
Расположение каналов : Front: L R
Частота : 48,0 КГц
Частота кадров : 31,250 кадров/сек (1536 spf)
Метод сжатия : С потерями
Размер потока : 159 Мбайт (3%)
Заголовок : Original
Язык : Italian
Default : Нет
Forced : Нет

Текст
Идентификатор : 4
Формат : UTF-8
Идентификатор кодека : S_TEXT/UTF8
Идентификатор кодека/Информация : UTF-8 Plain Text
Продолжительность : 1 ч. 47 м.
Битрейт : 31 бит/сек
Count of elements : 694
Размер потока : 25,2 Кбайт (0%)
Заголовок : английский
Язык : English
Default : Нет
Forced : Нет



Скачать Хлеб и шоколад через торрент http://s020.radikal.ru/i716/1603/d2/b346d867abbb.jpg Скачать, смотреть онлайн Хлеб и шоколад бесплантно в хорошем качестве Описание: Нелегко итальянскому эмигранту в Швейцарии. Местное население не жалует приезжих, да и конкуренты из Турции, Испании и других ... 5 10 1
Info! Золотая раздача, скачанное не засчитывается.
Торрент: Зарегистрирован [2016-03-27 09:33] · скачан: 20 раз
Статус: √ проверено
Размер: 4.74 GB
Как cкачать? Как скачать Хлеб и шоколад через торрент | UTorrent

% Раздел Тема Автор DL S | L
Фильмы [HD 720p, 1080p] (Звук Cam, VO, DVO) [ 13.35 GB ] Хлеб и шоколад / Pane e cioccolata | | 1080p msltel Скачать
1 | 0

28-11-2019 20:33  


Отключить вcю реклaмy на сайте, в т.ч. и в плеере онлайн просмотра!

    Дорогой пользователь! Огромная просьба, поблагодарите релизера, оцените раздачу и оставьте свои комментарий, если Вы скачали Хлеб и шоколад через торрент бесплатно!!
    Комментировать посты могут только пользователи прошедшие не сложную регистрацию
    Показать сообщения:    


    Хлеб и шоколад через торрент
    Скачать бесплатно Хлеб и шоколад
    Хлеб и шоколад скачать торрент
    Хлеб и шоколад смотреть онлайн
    Cкачать фильм Хлеб и шоколад бесплатно
    Хлеб и шоколад скачать торрент в хорошем качестве
    Хлеб и шоколад смотреть онлайн бесплатно в хорошем качестве
    Вы не можете начинать темы
    Вы не можете отвечать на сообщения
    Вы не можете редактировать свои сообщения
    Вы не можете удалять свои сообщения
    Вы не можете голосовать в опросах
    Вы не можете прикреплять файлы к сообщениям
    Вы можете скачивать файлы
    Хлеб и шоколад / Pane e cioccolata [1973, драма, комедия, BDRip 720p ] VO смотреть онлайн, скачать торрент picoco.icu