1 сезон

3 сезон

iTunes

1

iTunes

DUB Netflix

iTunes

13

1 сезон

RePack

30

Deluxe

pack

Легкие деньги

ВАЖНО

ИГРА 18+

pack

RePack

MK11

RePack

jed

RePack

fifa19

RePack

RDR2

RePack

NEED FOR SPEED™ PAYBACK

4 сезон

9 сезон

Бесстыжие 9 сезон

Все сериалы

все сериалы на PB.wtf

RePack

FAR CRY 5

Anonymous, добрый день, мы не успеваем до 1 числа собрать деньги на оплату серверов, помогите нам пожалуйста в это трудное время. В качестве благодарности мы отключим Вам всю рекламу на сайте (укажите свой ник в строку Ваше имя)!

×
  
Magnet ссылка

Пятьдесят оттенков черного / Fifty Shades of Black (Майкл Тиддес) [2016, Комедия, WEB DLRip-AVC] [iTunes] piratbit.org

Пятьдесят оттенков черного через торрент piratbit.org

Размер: 1.46 GB | Добавлен: 5 лет 2 мес. назад | Торрент скачан:290 раз
Скачать  

01-04-2016 17:35 Пятьдесят оттенков черного Скачать торрент  

Пятьдесят оттенков черного / Fifty Shades of Black«Если ты вляпался в черное, никогда не отмоешься до серого»
Год выпуска » 2016
Страна » США
Жанр » Комедия
Продолжительность » 01:28:02
Перевод » Дублированный • iTunes
Субтитры » Отсутствуют

В ролях
» Марлон Уайанс, Кали Хоук, Фред Уиллард, Майк Эппс, Эффион Крокетт, Джейн Сеймур, Флоренс Хендерсон, Эндрю Бэчелор, Дженни Зигрино, Кейт Лэнг Джонсон


Режиссёр
» Майкл Тиддес

» Неискушенная студентка колледжа знакомится с состоятельным бизнесменом, чьи сексуальные предпочтения омрачают их отношения.

• Качество » WEB DLRip-AVC
• Формат » MKV
• Видео кодек » AVC
• Аудио кодек » AC3
• Видео » AVC at 1 990 kb/s, 1024x428 at 25.000 fps
• Аудио » Русский (AC-3/ 6 ch / 384 kbps / 48,0 КГц / 16 bit )




Бюджет: $5 500 000
Сборы в США: $11 686 940
Сборы в России: $612 827
Дата мировой премьеры: 28 января 2016
Дата российской премьеры: 4 февраля 2016, «Парадиз»
Уникальный идентификатор : 174719047600920994110720399458106505898 (0x8371AA20CC0B6DA68D6C1BABF30A7AAA)
Полное имя : Fifty.Shades.of.Black.2016.WEB DLRip-AVC.mkv
Формат : Matroska
Версия формата : Version 2
Размер файла : 1,46 Гбайт
Продолжительность : 1 ч. 28 м.
Общий поток : 2376 Кбит/сек
Дата кодирования : UTC 2016-03-31 10:00:46
Программа кодирования : mkvmerge v7.8.0 ('River Man') 32bit built on Apr 3 2015 12:11:22
Библиотека кодирования : libebml v1.3.1 + libmatroska v1.4.2

Видео
Идентификатор : 1
Формат : AVC
Формат/Информация : Advanced Video Codec
Профиль формата : High@L4.1
Параметр CABAC формата : Да
Параметр ReFrames формата : 8 кадров
Идентификатор кодека : V_MPEG4/ISO/AVC
Продолжительность : 1 ч. 28 м.
Битрейт : 1990 Кбит/сек
Ширина : 1024 пикселя
Высота : 428 пикселей
Соотношение сторон : 2,40:1
Режим частоты кадров : Постоянный
Частота кадров : 25,000 кадров/сек
Цветовое пространство : YUV
Субдискретизация насыщенности : 4:2:0
Битовая глубина : 8 бит
Тип развёртки : Прогрессивная
Бит/(Пиксели*Кадры) : 0.182
Размер потока : 1,20 Гбайт (82%)
Библиотека кодирования : x264 core 146 r2538 121396c
Настройки программы : cabac=1 / ref=8 / deblock=1:-2:-2 / analyse=0x3:0x113 / me=umh / subme=11 / psy=1 / psy_rd=1.00:0.20 / mixed_ref=1 / me_range=32 / chroma_me=1 / trellis=2 / 8x8dct=1 / cqm=0 / deadzone=21,11 / fast_pskip=0 / chroma_qp_offset=-3 / threads=6 / lookahead_threads=1 / sliced_threads=0 / nr=0 / decimate=0 / interlaced=0 / bluray_compat=0 / constrained_intra=0 / bframes=3 / b_pyramid=2 / b_adapt=2 / b_bias=0 / direct=3 / weightb=1 / open_gop=0 / weightp=2 / keyint=240 / keyint_min=24 / scenecut=40 / intra_refresh=0 / rc_lookahead=60 / rc=2pass / mbtree=1 / bitrate=1990 / ratetol=1.0 / qcomp=0.60 / qpmin=0 / qpmax=69 / qpstep=4 / cplxblur=20.0 / qblur=0.5 / ip_ratio=1.40 / aq=1:1.00
Default : Да
Forced : Нет

Аудио
Идентификатор : 2
Формат : AC-3
Формат/Информация : Audio Coding 3
Расширение режима : CM (complete main)
Параметр Endianness формата : Big
Идентификатор кодека : A_AC3
Продолжительность : 1 ч. 28 м.
Вид битрейта : Постоянный
Битрейт : 384 Кбит/сек
Каналы : 6 каналов
Расположение каналов : Front: L C R, Side: L R, LFE
Частота : 48,0 КГц
Частота кадров : 31,250 кадров/сек (1536 spf)
Метод сжатия : С потерями
Размер потока : 242 Мбайт (16%)
Default : Да
Forced : Нет
[/code]
скриншот   скриншот   скриншот   скриншот   скриншот   скриншот  
piratbit.org



Скачать Пятьдесят оттенков черного через торрент http://i74.fastpic.ru/big/2015/1218/b5/c39d072d168dbcde95d1a17f670689b5.gif Скачать фильм Пятьдесят оттенков черного через торрент бесплантно в хорошем качестве В ролях » Марлон Уайанс, Кали Хоук, Фред Уиллард, Майк Эппс, Эффион Крокетт, Джейн Сеймур, Флоренс Хендерсон, Эндрю Бэчелор, Дженни ... 8.6 10 14
Торрент: Зарегистрирован [2016-04-01 17:35] · скачан: 290 раз
Статус: √ проверено
Размер: 1.46 GB
Как cкачать? Как скачать Пятьдесят оттенков черного через торрент | UTorrent

% Раздел Тема Автор DL S | L
Фильмы 2016 [DVDrip, WEB-DLRip, HDrip] (DUB, MVO) [ 1.42 GB ] Пятьдесят оттенков черного / Fifty Shades of Black [2016 / IM Global BDRip-AVC] Dub potroks Скачать
1 | 0
R.G. Resident & PiratVoice - Фильмы, Видео [ 1.76 GB ] Пятьдесят оттенков черного / Fifty Shades of Black [2016 BDRip-AVC ] schultz Скачать
1 | 0
Фильмы 2016 [DVDrip, WEB-DLRip, HDrip] (DUB, MVO) [ 745 MB ] Пятьдесят оттенков черного / Fifty Shades of Black [2016 WEB-DLRip] DUB Leonardo'D Скачать
1 | 0
Фильмы 2016 [DVDrip, WEB-DLRip, HDrip] (DUB, MVO) [ 1.42 GB ] Пятьдесят оттенков черного / Fifty Shades of Black [2016 BDRip ] Twi7ter Скачать
1 | 0
Фильмы (Blu-ray, BD-Remux, HDDVD) [ 22.37 GB ] Пятьдесят оттенков черного / Fifty Shades of Black [2016 BD Remux ] Бумер Скачать
1 | 0
Фильмы (WEB-DL 720p, 1080p) [ 3 GB ] Пятьдесят оттенков черного / Fifty Shades of Black [2016 WEB-DL 1080p ] GEKADOL Скачать
1 | 0
Фильмы 2016 [DVDrip, WEB-DLRip, HDrip] (DUB, MVO) [ 1.37 GB ] Пятьдесят оттенков черного / Fifty Shades of Black [2016 WEB-DLRip ] GEKADOL Скачать
1 | 0

28-11-2019 20:33  

Отключить всю рекламу на сайте

01-04-2016 18:10 Пятьдесят оттенков черного Скачать торрент  

на кинопоиске рейтинг завышен раз в пять - всё относительно смешное показали в рекламном ролике. всё остальное даже не галустянство - а "нормальный, здоровый американский юмор"piratbit.org



02-04-2016 04:52 Пятьдесят оттенков черного Скачать торрент  

чухня одним словом. пародии на ужастики были лучшеpiratbit.org



02-04-2016 12:57 Пятьдесят оттенков черного Скачать торрент  

халкхоган, я тоже так думаю,чёт тут не особо вышлоpiratbit.org



    Дорогой пользователь! Огромная просьба, поблагодарите релизера, оцените раздачу и оставьте свои комментарий, если Вы скачали Пятьдесят оттенков черного через торрент бесплатно! Внесите свою лепту в развитие PiratBit!
    Комментировать посты могут только пользователи прошедшие не сложную регистрацию
    Показать сообщения:    

    Пятьдесят оттенков черного через торрент
    Скачать бесплатно Пятьдесят оттенков черного
    Пятьдесят оттенков черного скачать торрент
    Пятьдесят оттенков черного смотреть онлайн
    Cкачать фильм Пятьдесят оттенков черного бесплатно
    Пятьдесят оттенков черного скачать торрент в хорошем качестве
    Пятьдесят оттенков черного смотреть онлайн бесплатно в хорошем качестве


    Вы не можете начинать темы
    Вы не можете отвечать на сообщения
    Вы не можете редактировать свои сообщения
    Вы не можете удалять свои сообщения
    Вы не можете голосовать в опросах
    Вы не можете прикреплять файлы к сообщениям
    Вы можете скачивать файлы