новый адрес
Мега распродажа FORZA HORIZON 4 ULTIMATE+ВСЕ DLC+ОНЛАЙН всего за 499р. 349 руб. (супер цена). Внимание количество ограничено!!!

iTunes

1+1

iTunes

мы

iTunes

1

iTunes

Чернобыль

iTunes

Ральф против интернета

Лицензия

ПШазам

Лицензия

Оно 2

Лицензия

30
pack

ВАЖНО

!!Акция!!

Alien_RageХит недели

RePack

Resident Evil 21

ИГРА 18+

pack

RePack

Metro:Exodus

!!Акция!!

Alien_Rage

RePack

fifa19

RePack

Assassins Creed: Odyssey

RePack

NEED FOR SPEED™ PAYBACK

3 сезон

9 сезон

Бесстыжие 9 сезон

Все сериалы

все сериалы на PB.wtf

RePack

FAR CRY 5
Ребята, катастрофически не хватает 1900р. для оплаты серверов за Октябрь (всвязи с блокировками трафик упал в 3 раза), 1-2р., выручайте.
  

Элвин и бурундуки: Грандиозное бурундуключение / Alvin and the Chipmunks: The Road Chip (Уолт Бекер / Walt Becker) [2015, мультфильм, фэнтези, комедия, BDRip 720p от potroks] DUB Лицензия piratbit.org

Элвин и бурундуки: Грандиозное бурундуключение через торрент piratbit.org

Раздают: 1 [ 384 KB/s ]
Размер: 4.63 GB | Добавлен: 3 года 7 мес. назад | Торрент скачан:400 раз
Скачать  

02-04-2016 06:39 Элвин и бурундуки: Грандиозное бурундуключение Скачать торрент  

Элвин и бурундуки: Грандиозное бурундуключение / Alvin and the Chipmunks: The Road Chip
«Fast & furry-ous»
Год выпуска: 2015
Страна: США / Fox 2000 Pictures...
Жанр: мультфильм, фэнтези, комедия, приключения, семейный, музыка
Продолжительность: 01:32:00
Перевод: Дубляж [BD EUR]
Субтитры: русские (форс. (x2)), русские (iTunes), украинские (полные + форс.), английские (Forced + Full + SDH)
Навигация по главам: есть
Режиссер: Уолт Бекер / Walt Becker
В ролях:

Джейсон Ли (Dave), Джастин Лонг (Alvin, озвучка), Мэттью Грей Гублер (Simon, озвучка), Джесси МакКартни (Theodore, озвучка), Кимберли Уильямс-Пэйсли (Samantha), Джош Грин (Miles), Тони Хейл (Agent Suggs), Белла Торн (Ashley Grey), Эдди Стиплз (Barry), Кристина Эпплгейт (Brittany, озвучка), Кейли Куоко-Суитинг (Eleanor, озвучка), Анна Фэрис (Jeanette, озвучка)
Описание: Бурундуки пойдут на всё, чтобы сохранить свою семью, даже на грандиозное бурундуключение по всей Америке!
Когда Бурундуки видят, что Дэйв берет с собой коробочку с кольцом в поездку в Майами, они отчаянно пытаются помешать ему сделать предложение его девушке - из опасения, что мачеха и сводный брат внесут перемены в их семейную идиллию. Но после того, как их помещают в черный список за хулиганское поведение в самолете, Элвин, Саймон, Теодор и их будущий брат Майлз отправляются в самое важное путешествие в их жизни через всю страну, чтобы успеть помешать помолвке.

Качество: BDRip 720p
Формат: MKV
Видео кодек: AVC
Аудио кодек: AC3, DTS
Видео: 1280x690 (1.855), 5355 kbps, 23,976 fps, 0,253 bit/pixel
Аудио №1: DTS / 5.1 / 48 kHz / 768 kbps / 24 bit | RUS
Аудио №2: AC3 / 5.1 / 44 kHz / 448 kbps / 16 bit | UKR
Аудио №3: AC3 / 5.1 / 48 kHz / 640 kbps / 16 bit | ENG

Релиз группы:
Автор рипа: potroks

Код:

Общее
Уникальный идентификатор : 187498283258719050160571376995073270540 (0x8D0EDB17577C5160A35A2A2960EC230C)
Полное имя : Elvin.&.Burunduki.Grandioznoye.Burunduklucheniye.2015.DUB.UKR.ENG.BDRip.720p.by_potroks.mkv
Формат : Matroska
Версия формата : Version 4 / Version 2
Размер файла : 4,63 Гбайт
Продолжительность : 1 ч. 32 м.
Общий поток : 7206 Кбит/сек
Название фильма : Alvin and the Chipmunks: The Road Chip (2015)
Дата кодирования : UTC 2016-04-02 06:32:17
Программа кодирования : mkvmerge v5.9.0 ('On The Loose') built on Dec 15 2012 16:39:58
Библиотека кодирования : libebml v1.3.0 + libmatroska v1.4.0

Видео
Идентификатор : 1
Формат : AVC
Формат/Информация : Advanced Video Codec
Профиль формата : High@L4.1
Параметр CABAC формата : Да
Параметр ReFrames формата : 9 кадров
Идентификатор кодека : V_MPEG4/ISO/AVC
Продолжительность : 1 ч. 32 м.
Битрейт : 5355 Кбит/сек
Ширина : 1280 пикселей
Высота : 690 пикселей
Соотношение сторон : 1,85:1
Режим частоты кадров : Постоянный
Частота кадров : 23,976 кадра/сек
Цветовое пространство : YUV
Субдискретизация насыщенности : 4:2:0
Битовая глубина : 8 бит
Тип развёртки : Прогрессивная
Бит/(Пиксели*Кадры) : 0.253
Размер потока : 3,35 Гбайт (72%)
Заголовок : potroks
Библиотека кодирования : x264 core 146 r2538 121396c
Настройки программы : cabac=1 / ref=9 / deblock=1:-3:-3 / analyse=0x3:0x113 / me=umh / subme=11 / psy=1 / psy_rd=1.00:0.05 / mixed_ref=1 / me_range=48 / chroma_me=1 / trellis=2 / 8x8dct=1 / cqm=0 / deadzone=21,11 / fast_pskip=0 / chroma_qp_offset=-3 / threads=9 / lookahead_threads=2 / sliced_threads=0 / nr=0 / decimate=0 / interlaced=0 / bluray_compat=0 / constrained_intra=0 / bframes=10 / b_pyramid=2 / b_adapt=2 / b_bias=0 / direct=3 / weightb=1 / open_gop=0 / weightp=2 / keyint=240 / keyint_min=23 / scenecut=40 / intra_refresh=0 / rc_lookahead=60 / rc=2pass / mbtree=0 / bitrate=5355 / ratetol=1.0 / qcomp=0.70 / qpmin=0 / qpmax=69 / qpstep=4 / cplxblur=20.0 / qblur=0.5 / vbv_maxrate=14000 / vbv_bufsize=14000 / nal_hrd=none / filler=0 / ip_ratio=1.35 / pb_ratio=1.25 / aq=1:0.80
Язык : English
Default : Да
Forced : Нет

Аудио #1
Идентификатор : 2
Формат : DTS
Формат/Информация : Digital Theater Systems
Режим : 16
Параметр Endianness формата : Big
Идентификатор кодека : A_DTS
Продолжительность : 1 ч. 32 м.
Вид битрейта : Постоянный
Битрейт : 768 Кбит/сек
Каналы : 6 каналов
Расположение каналов : Front: L C R, Side: L R, LFE
Частота : 48,0 КГц
Битовая глубина : 24 бит
Метод сжатия : С потерями
Размер потока : 505 Мбайт (11%)
Заголовок : Dub | DTS 5.1 @ 768 kbps - Blu-ray EUR
Язык : Russian
Default : Да
Forced : Нет

Аудио #2
Идентификатор : 3
Формат : AC-3
Формат/Информация : Audio Coding 3
Расширение режима : CM (complete main)
Параметр Endianness формата : Big
Идентификатор кодека : A_AC3
Продолжительность : 1 ч. 32 м.
Вид битрейта : Постоянный
Битрейт : 448 Кбит/сек
Каналы : 6 каналов
Расположение каналов : Front: L C R, Side: L R, LFE
Частота : 48,0 КГц
Метод сжатия : С потерями
Размер потока : 295 Мбайт (6%)
Заголовок : Dub | DD 5.1 @ 448 kbps - Blu-ray EUR
Язык : Ukrainian
Default : Нет
Forced : Нет

Аудио #3
Идентификатор : 4
Формат : AC-3
Формат/Информация : Audio Coding 3
Расширение режима : CM (complete main)
Параметр Endianness формата : Big
Идентификатор кодека : A_AC3
Продолжительность : 1 ч. 32 м.
Вид битрейта : Постоянный
Битрейт : 640 Кбит/сек
Каналы : 6 каналов
Расположение каналов : Front: L C R, Side: L R, LFE
Частота : 48,0 КГц
Метод сжатия : С потерями
Размер потока : 421 Мбайт (9%)
Заголовок : Original | DD 5.1 @ 640 kbps
Язык : English
Default : Нет
Forced : Нет

Текст #1
Идентификатор : 5
Формат : UTF-8
Идентификатор кодека : S_TEXT/UTF8
Идентификатор кодека/Информация : UTF-8 Plain Text
Заголовок : Forced [iTunes]
Язык : Russian
Default : Нет
Forced : Нет

Текст #2
Идентификатор : 6
Формат : UTF-8
Идентификатор кодека : S_TEXT/UTF8
Идентификатор кодека/Информация : UTF-8 Plain Text
Заголовок : Forced [potroks]
Язык : Russian
Default : Да
Forced : Нет

Текст #3
Идентификатор : 7
Формат : UTF-8
Идентификатор кодека : S_TEXT/UTF8
Идентификатор кодека/Информация : UTF-8 Plain Text
Заголовок : iTunes
Язык : Russian
Default : Нет
Forced : Нет

Текст #4
Идентификатор : 8
Формат : UTF-8
Идентификатор кодека : S_TEXT/UTF8
Идентификатор кодека/Информация : UTF-8 Plain Text
Заголовок : Forced [potroks]
Язык : Ukrainian
Default : Нет
Forced : Нет

Текст #5
Идентификатор : 9
Формат : UTF-8
Идентификатор кодека : S_TEXT/UTF8
Идентификатор кодека/Информация : UTF-8 Plain Text
Заголовок : iTunes
Язык : Ukrainian
Default : Нет
Forced : Нет

Текст #6
Идентификатор : 10
Формат : UTF-8
Идентификатор кодека : S_TEXT/UTF8
Идентификатор кодека/Информация : UTF-8 Plain Text
Заголовок : Forced
Язык : English
Default : Нет
Forced : Нет

Текст #7
Идентификатор : 11
Формат : UTF-8
Идентификатор кодека : S_TEXT/UTF8
Идентификатор кодека/Информация : UTF-8 Plain Text
Заголовок : Full
Язык : English
Default : Нет
Forced : Нет

Текст #8
Идентификатор : 12
Формат : UTF-8
Идентификатор кодека : S_TEXT/UTF8
Идентификатор кодека/Информация : UTF-8 Plain Text
Заголовок : SDH
Язык : English
Default : Нет
Forced : Нет

Меню
00:00:00.000 : en:Chapter 01
00:05:35.209 : en:Chapter 03
00:08:09.322 : en:Chapter 05
00:12:31.041 : en:Chapter 07
00:16:40.332 : en:Chapter 09
00:20:11.084 : en:Chapter 11
00:22:45.447 : en:Chapter 13
00:24:56.870 : en:Chapter 15
00:27:57.217 : en:Chapter 17
00:30:30.828 : en:Chapter 19
00:35:27.750 : en:Chapter 21
00:39:55.059 : en:Chapter 23
00:42:55.531 : en:Chapter 25
00:45:58.505 : en:Chapter 27
00:49:43.480 : en:Chapter 29
00:55:16.563 : en:Chapter 31
00:58:13.489 : en:Chapter 33
01:01:46.244 : en:Chapter 35
01:04:39.000 : en:Chapter 37
01:09:26.662 : en:Chapter 39
01:13:25.859 : en:Chapter 41
01:16:30.877 : en:Chapter 43
01:21:39.811 : en:Chapter 45
01:25:03.932 : en:Chapter 47
01:31:59.930 : en:Chapter 48

piratbit.org



Скачать Элвин и бурундуки: Грандиозное бурундуключение через торрент http://i76.fastpic.ru/big/2016/0402/91/31cbe51e9a4ff8b91136d7f8d2fc5a91.png Скачать фильм Элвин и бурундуки: Грандиозное бурундуключение через торрент бесплантно в хорошем качестве Описание: Бурундуки пойдут на всё, чтобы сохранить свою семью, даже на грандиозное бурундуключение по всей Америке!Когда Бурундуки видят, ... 9.1 10 19
Info! Золотая раздача, скачанное не засчитывается.
Торрент: Зарегистрирован [2016-04-02 06:39] · скачан: 400 раз
Статус: √ проверено
Размер: 4.63 GB
Как cкачать? Как скачать Элвин и бурундуки: Грандиозное бурундуключение через торрент | qTorrent

% Раздел Тема Автор DL S | L
Фильмы [HD 720p, 1080p] (Хороший звук DUB, MVO) [ 7.72 GB ] Элвин и бурундуки: Грандиозное бурундуключение / Alvin and the Chipmunks: The Road Chip [2015 BDRip 1080p от еnvy / NNNB] DUB еnvy Скачать
5 | 0
Иностранные мультфильмы [ 1.46 GB ] Элвин и бурундуки: Грандиозное бурундуключение / Alvin and the Chipmunks: The Road Chip [2015 мультфильм BDRip-AVC] DUB potroks Скачать
1 | 0


>> Регистрируемся здесь <<






Отзывы и комментарии о схеме читаем и пишем здесь: ---> Отзывы и комментарии о схеме

Новые благодарочки в телеграм довольных пользователей:
скриншот   скриншот   скриншот   скриншот   скриншот
    Дорогой пользователь! Огромная просьба, поблагодарите релизера, оцените раздачу и оставьте свои комментарий, если Вы скачали Элвин и бурундуки: Грандиозное бурундуключение через торрент бесплатно! Внесите свою лепту в развитие PiratBit!
    Комментировать посты могут только пользователи прошедшие не сложную регистрацию
    Показать сообщения:    

    Элвин и бурундуки: Грандиозное бурундуключение через торрент
    Скачать бесплатно Элвин и бурундуки: Грандиозное бурундуключение
    Элвин и бурундуки: Грандиозное бурундуключение скачать торрент
    Элвин и бурундуки: Грандиозное бурундуключение смотреть онлайн
    Cкачать фильм Элвин и бурундуки: Грандиозное бурундуключение бесплатно
    Элвин и бурундуки: Грандиозное бурундуключение скачать торрент в хорошем качестве
    Элвин и бурундуки: Грандиозное бурундуключение смотреть онлайн бесплатно в хорошем качестве


    Вы не можете начинать темы
    Вы не можете отвечать на сообщения
    Вы не можете редактировать свои сообщения
    Вы не можете удалять свои сообщения
    Вы не можете голосовать в опросах
    Вы не можете прикреплять файлы к сообщениям
    Вы можете скачивать файлы