Доктор Стрэндж

Лицензия

Добыча

Дубляж

Уэнсдэй

1 сезон

Тор

Дубляж

В эфире

Дубляж

Там, где раки поют

MVO

Властелин колец

1 сезон

Deluxe

pack

Рекомендуем

30

Пиратка

ВАЖНО

ВАЖНО

Ghostwire

Пиратка

jed

RePack

nioh2

RePack

RDR2

RePack

NEED FOR SPEED™ PAYBACK

RePack

скачать торрент

Кинопоиск HD

Острые козырьки 6 сезон

6 сезон

FAR CRY 6

RePack

скачать торрент

Лицензия

скачать торрент

MVO

1

1 сезон

скачать торрент

1 сезон

скачать торрент

Лицензия

  

Собачье поле / Onirica (Лех Маевский) [2014, драма, история, BDRip 720p ] DVO (любительский)

Собачье поле через торрент piratbit.org

Размер: 4.22 GB | Добавлен: 6 лет 8 мес. назад | Торрент скачан:57 раз
Смотреть онлайн | Скачать   

02-04-2016 08:51 Собачье поле Скачать торрент  

Название: Собачье поле
Оригинальное название: Onirica
Год выпуска: 2014
Страна: Польша, Италия, Швеция
Жанр: драма, история
Продолжительность: 01:42:01
Перевод: любительский двухголосый

Режиссёр: Лех Маевский

В ролях: Михал Татарек, Эльжбета Окупская, Анна Мелчарек, Яценты Ендрусик, Шимон Будзик

Описание: Отец вспахивает магазин на волах, плуг срезает плитку. Лес полон мертвецов. Ниагара низвергается на церковный алтарь. Вот какие видения преследуют Адама, поэта, потерявшего свою возлюбленную в автокатастрофе. Национальная трагедия накладывается на личную. Год 2010 - библейский год для Польши. С наводнениями, пожарами, оползнями, загадочной авиакатастрофой, в которой погибла вся элита страны. Адам увольняется с должности профессора литературы и идёт работать кассиром в супермаркет, но он хочет только спать, спасаясь от болезненной действительности...



Качество: BDRip 720p Сравнение с исходником
Формат: MKV
Видео: MPEG-4 AVC, 5273 Кбит/с, 1280х690, 23,976 кадра/с
Аудио 1: русский, AC3, 192 kbps, 2 ch, 48 kHz [любительский двухголосый, DeadSno & Den904]
Аудио 2: польский, AC3, 448 kbps, 6 ch, 48 kHz [оригинал]
Субтитры 1: русские
Субтитры 2: английские
Общее
Уникальный идентификатор : 195634395780601089516095082989825945793 (0x932DD068C3FF0FDDBD0605381CF1F0C1)
Полное имя : D:\Video\Собачье поле.2014.BDRip.720p.mkv
Формат : Matroska
Версия формата : Version 4 / Version 2
Размер файла : 4,22 Гбайт
Продолжительность : 1 ч. 42 м.
Общий поток : 5915 Кбит/сек
Дата кодирования : UTC 2016-04-02 03:46:25
Программа кодирования : mkvmerge v8.2.0 ('World of Adventure') 64bit
Библиотека кодирования : libebml v1.3.1 + libmatroska v1.4.2

Видео
Идентификатор : 1
Формат : AVC
Формат/Информация : Advanced Video Codec
Профиль формата : High@L4.1
Параметр CABAC формата : Да
Параметр ReFrames формата : 9 кадров
Идентификатор кодека : V_MPEG4/ISO/AVC
Продолжительность : 1 ч. 42 м.
Битрейт : 5273 Кбит/сек
Ширина : 1280 пикселей
Высота : 690 пикселей
Соотношение сторон : 1,85:1
Режим частоты кадров : Постоянный
Частота кадров : 24,000 кадра/сек
Цветовое пространство : YUV
Субдискретизация насыщенности : 4:2:0
Битовая глубина : 8 бит
Тип развёртки : Прогрессивная
Бит/(Пиксели*Кадры) : 0.249
Размер потока : 3,76 Гбайт (89%)
Библиотека кодирования : x264 core 146 r2538 121396c
Настройки программы : cabac=1 / ref=9 / deblock=1:-1:-1 / analyse=0x3:0x113 / me=umh / subme=10 / psy=1 / psy_rd=1.00:0.15 / mixed_ref=1 / me_range=32 / chroma_me=1 / trellis=2 / 8x8dct=1 / cqm=0 / deadzone=21,11 / fast_pskip=1 / chroma_qp_offset=-3 / threads=6 / lookahead_threads=1 / sliced_threads=0 / nr=0 / decimate=1 / interlaced=0 / bluray_compat=0 / constrained_intra=0 / bframes=13 / b_pyramid=2 / b_adapt=2 / b_bias=0 / direct=1 / weightb=1 / open_gop=0 / weightp=2 / keyint=230 / keyint_min=23 / scenecut=40 / intra_refresh=0 / rc_lookahead=40 / rc=crf / mbtree=0 / crf=18.0 / qcomp=0.60 / qpmin=0 / qpmax=69 / qpstep=4 / vbv_maxrate=40000 / vbv_bufsize=50000 / crf_max=0.0 / nal_hrd=none / filler=0 / ip_ratio=1.40 / pb_ratio=1.30 / aq=1:1.00
Язык : Polish
Default : Да
Forced : Нет

Аудио #1
Идентификатор : 2
Формат : AC-3
Формат/Информация : Audio Coding 3
Расширение режима : CM (complete main)
Параметр Endianness формата : Big
Идентификатор кодека : A_AC3
Продолжительность : 1 ч. 42 м.
Вид битрейта : Постоянный
Битрейт : 192 Кбит/сек
Каналы : 2 канала
Расположение каналов : Front: L R
Частота : 48,0 КГц
Частота кадров : 31,250 кадров/сек (1536 spf)
Метод сжатия : С потерями
Размер потока : 140 Мбайт (3%)
Заголовок : любительский двухголосый, DeadSno & Den904
Язык : Russian
Default : Да
Forced : Нет

Аудио #2
Идентификатор : 3
Формат : AC-3
Формат/Информация : Audio Coding 3
Расширение режима : CM (complete main)
Параметр Endianness формата : Big
Идентификатор кодека : A_AC3
Продолжительность : 1 ч. 42 м.
Вид битрейта : Постоянный
Битрейт : 448 Кбит/сек
Каналы : 6 каналов
Расположение каналов : Front: L C R, Side: L R, LFE
Частота : 48,0 КГц
Частота кадров : 31,250 кадров/сек (1536 spf)
Метод сжатия : С потерями
Размер потока : 327 Мбайт (8%)
Заголовок : Original
Язык : Polish
Default : Нет
Forced : Нет

Текст #1
Идентификатор : 4
Формат : UTF-8
Идентификатор кодека : S_TEXT/UTF8
Идентификатор кодека/Информация : UTF-8 Plain Text
Продолжительность : 1 ч. 37 м.
Битрейт : 37 бит/сек
Count of elements : 502
Размер потока : 27,2 Кбайт (0%)
Заголовок : русский
Язык : Russian
Default : Нет
Forced : Нет

Текст #2
Идентификатор : 5
Формат : UTF-8
Идентификатор кодека : S_TEXT/UTF8
Идентификатор кодека/Информация : UTF-8 Plain Text
Продолжительность : 1 ч. 38 м.
Битрейт : 27 бит/сек
Count of elements : 481
Размер потока : 19,6 Кбайт (0%)
Заголовок : английский
Язык : English
Default : Нет
Forced : Нет



Скачать Собачье поле через торрент http://s015.radikal.ru/i332/1604/71/2d14bd7d018d.jpg Скачать, смотреть онлайн Собачье поле бесплантно в хорошем качестве Описание: Отец вспахивает магазин на волах, плуг срезает плитку. Лес полон мертвецов. Ниагара низвергается на церковный алтарь. Вот какие ... 5.5 10 6
Info! Золотая раздача, скачанное не засчитывается.
Торрент: Зарегистрирован [2016-04-02 08:51] · скачан: 57 раз
Статус: √ проверено
Размер: 4.22 GB
Как cкачать? Как скачать Собачье поле через торрент | UTorrent

% Раздел Тема Автор DL S | L
Фильмы [HD 720p, 1080p] (Звук Cam, VO, DVO) [ 12.08 GB ] Собачье поле / Onirica | | 1080p msltel Скачать
1 | 0

28-11-2019 20:33  


Отключить вcю реклaмy на сайте, в т.ч. и в плеере онлайн просмотра!

02-04-2016 09:12 Собачье поле Скачать торрент  

Это мне чем-то напомнило "Андалузский пес", там можно было увидеть больные (все их считают гениальными) видения Бунюэля и Дали... Видимо это вдохновило поляков.



02-04-2016 10:50 Собачье поле Скачать торрент  

не одного достойного фильма пр-ва Польши не помню. Да и этот походу



02-04-2016 11:07 Собачье поле Скачать торрент  

А сиськи должны видимо как то оправдать просмотр?



02-04-2016 18:21 Собачье поле Скачать торрент  

dimon99979 писал(а):

не одного достойного фильма пр-ва Польши не помню. Да и этот походу

Как ? А "Ва банк 1981", "Секс миссия 1983", "Киллер 1997". Есть фильмы, лукавите...



    Дорогой пользователь! Огромная просьба, поблагодарите релизера, оцените раздачу и оставьте свои комментарий, если Вы скачали Собачье поле через торрент бесплатно!!
    Комментировать посты могут только пользователи прошедшие не сложную регистрацию
    Показать сообщения:    


    Собачье поле через торрент
    Скачать бесплатно Собачье поле
    Собачье поле скачать торрент
    Собачье поле смотреть онлайн
    Cкачать фильм Собачье поле бесплатно
    Собачье поле скачать торрент в хорошем качестве
    Собачье поле смотреть онлайн бесплатно в хорошем качестве
    Вы не можете начинать темы
    Вы не можете отвечать на сообщения
    Вы не можете редактировать свои сообщения
    Вы не можете удалять свои сообщения
    Вы не можете голосовать в опросах
    Вы не можете прикреплять файлы к сообщениям
    Вы можете скачивать файлы
    Собачье поле / Onirica [2014, драма, история, BDRip 720p ] DVO смотреть онлайн, скачать торрент picoco.icu