1 сезон

3 сезон

iTunes

1

iTunes

DUB Netflix

iTunes

13

1 сезон

RePack

30

Deluxe

pack

Легкие деньги

ВАЖНО

ИГРА 18+

pack

RePack

MK11

RePack

jed

RePack

fifa19

RePack

RDR2

RePack

NEED FOR SPEED™ PAYBACK

4 сезон

9 сезон

Бесстыжие 9 сезон

Все сериалы

все сериалы на PB.wtf

RePack

FAR CRY 5

Anonymous, добрый день, мы не успеваем до 1 числа собрать деньги на оплату серверов, помогите нам пожалуйста в это трудное время. В качестве благодарности мы отключим Вам всю рекламу на сайте (укажите свой ник в строку Ваше имя)!

×
  
Magnet ссылка

Охота на работу / Get a Job (Дилан Кидд) [2016, комедия, WEB-DLRip] MVO (Без рекламы) piratbit.org

Охота на работу через торрент piratbit.org

Размер: 1.37 GB | Добавлен: 5 лет 2 мес. назад | Торрент скачан:604 раза
Скачать  

03-04-2016 18:04 Охота на работу Скачать торрент  

Охота на работу / Get a Job«Graduating was the easy part»
Год выпуска » 2016
Страна » США
Жанр » Комедия
Продолжительность » 01:22:45
Перевод » Любительский многоголосый [RecentFilms]
Субтитры » Отсутствуют

В ролях
» Элисон Бри / Alison Brie (Tanya), Анна Кендрик / Anna Kendrick (Jillian Stewart), Майлз Теллер / Miles Teller (Will Davis), Брайан Крэнстон / Bryan Cranston (Roger Davis), Грег Джерманн / Greg Germann (Fernando), Кристофер Минц-Плассе / Christopher Mintz-Plasse (Ethan), Марша Гей Харден / Marcia Gay Harden (Katherine Dunn), Николас Браун / Nicholas Braun (Charlie)


Режиссёр
» Дилан Кидд

» Сюжет ленты строится вокруг выпускника колледжа и его друзей. Молодые специалисты стоят на распутье, чем заниматься, зачем и тому ли они учились. В стране Экономический кризис, а молодежь хочет отрываться.

• Качество » WEB-DLRip
• Формат » AVI
• Видео кодек » XVID
• Аудио кодек » AC3,AAC
• Видео »MPEG-4 Visual , 1971 Кбит/сек, 720x400 (16:9), 23.976 fps
• Аудио » Русский (AC-3/ 2 ch/ 384 kbps / 48,0 КГц / 16 bit )




Дата мировой премьеры: 25 марта 2016
Общее
Полное имя : D:\Get.a.Job.2016.WEB-DLRip.1400MB.avi
Формат : AVI
Формат/Информация : Audio Video Interleave
Размер файла : 1,37 Гбайт
Продолжительность : 1 ч. 22 м.
Общий поток : 2364 Кбит/сек
Программа кодирования : VirtualDubMod 1.5.10.2 (build 2540/release)
Библиотека кодирования : VirtualDubMod build 2540/release

Видео
Идентификатор : 0
Формат : MPEG-4 Visual
Профиль формата : Advanced Simple@L5
Параметр BVOP формата : 2
Параметр QPel формата : Нет
Параметр GMC формата : Без точки перехода
Параметр матрицы формата : Default (MPEG)
Идентификатор кодека : XVID
Идентификатор кодека/Подсказка : XviD
Продолжительность : 1 ч. 22 м.
Битрейт : 1971 Кбит/сек
Ширина : 720 пикселей
Высота : 400 пикселей
Соотношение сторон : 16:9
Частота кадров : 23,976 кадра/сек
Цветовое пространство : YUV
Субдискретизация насыщенности : 4:2:0
Битовая глубина : 8 бит
Тип развёртки : Прогрессивная
Метод сжатия : С потерями
Бит/(Пиксели*Кадры) : 0.285
Размер потока : 1,14 Гбайт (83%)
Библиотека кодирования : XviD 1.2.1 (UTC 2008-12-04)

Аудио
Идентификатор : 1
Формат : AC-3
Формат/Информация : Audio Coding 3
Расширение режима : CM (complete main)
Параметр Endianness формата : Big
Идентификатор кодека : 2000
Продолжительность : 1 ч. 22 м.
Вид битрейта : Постоянный
Битрейт : 384 Кбит/сек
Каналы : 2 канала
Расположение каналов : Front: L R
Частота : 48,0 КГц
Битовая глубина : 16 бит
Метод сжатия : С потерями
Размер потока : 227 Мбайт (16%)
Выравнивание : Разделение по промежуткам
Продолжительность промежутка : 42 мс. (1,00 видеокадр)
Время предзагрузки промежутка : 500 мс.
[/code]
скриншот   скриншот   скриншот   скриншот  
piratbit.org



Скачать Охота на работу через торрент http://i74.fastpic.ru/big/2015/1218/b5/c39d072d168dbcde95d1a17f670689b5.gif Скачать фильм Охота на работу через торрент бесплантно в хорошем качестве В ролях » Элисон Бри / Alison Brie (Tanya), Анна Кендрик / Anna Kendrick (Jillian Stewart), Майлз Теллер / Miles Teller (Will Davis), ... 9.8 10 19
Торрент: Зарегистрирован [2016-04-03 18:04] · скачан: 604 раз
Статус: T временная
Размер: 1.37 GB
Как cкачать? Как скачать Охота на работу через торрент | UTorrent

% Раздел Тема Автор DL S | L
T Фильмы 2016 [DVDrip, WEB-DLRip, HDrip] (DUB, MVO) [ 1.46 GB ] Охота на работу / Get a Job HDRip / MVO Ворон Скачать
1 | 0
T Фильмы (WEB-DL 720p, 1080p) [ 3.25 GB ] Охота на работу / Get a Job [2016 WEB-DL 1080p] MVO $-DRON-$ Скачать
1 | 0
T Фильмы 2016 [DVDrip, WEB-DLRip, HDrip] (DUB, MVO) [ 1.51 GB ] Охота на работу / Get a Job [2016 WEB-DLRip ] MVO $-DRON-$ Скачать
1 | 0

28-11-2019 20:33  

Отключить всю рекламу на сайте

    Дорогой пользователь! Огромная просьба, поблагодарите релизера, оцените раздачу и оставьте свои комментарий, если Вы скачали Охота на работу через торрент бесплатно! Внесите свою лепту в развитие PiratBit!
    Комментировать посты могут только пользователи прошедшие не сложную регистрацию
    Показать сообщения:    

    Охота на работу через торрент
    Скачать бесплатно Охота на работу
    Охота на работу скачать торрент
    Охота на работу смотреть онлайн
    Cкачать фильм Охота на работу бесплатно
    Охота на работу скачать торрент в хорошем качестве
    Охота на работу смотреть онлайн бесплатно в хорошем качестве


    Вы не можете начинать темы
    Вы не можете отвечать на сообщения
    Вы не можете редактировать свои сообщения
    Вы не можете удалять свои сообщения
    Вы не можете голосовать в опросах
    Вы не можете прикреплять файлы к сообщениям
    Вы можете скачивать файлы