новый адрес
Мега распродажа FORZA HORIZON 4 ULTIMATE+ВСЕ DLC+ОНЛАЙН всего за 499р. 349 руб. (супер цена). Внимание количество ограничено!!!

iTunes

1+1

iTunes

мы

iTunes

1

iTunes

Чернобыль

iTunes

Ральф против интернета

Лицензия

ПШазам

Лицензия

Оно 2

Лицензия

30
pack

ВАЖНО

!!Акция!!

Alien_RageХит недели

RePack

Resident Evil 21

ИГРА 18+

pack

RePack

Metro:Exodus

!!Акция!!

Alien_Rage

RePack

fifa19

RePack

Assassins Creed: Odyssey

RePack

NEED FOR SPEED™ PAYBACK

3 сезон

9 сезон

Бесстыжие 9 сезон

Все сериалы

все сериалы на PB.wtf

RePack

FAR CRY 5
Ребята, катастрофически не хватает 1900р. для оплаты серверов за Октябрь (всвязи с блокировками трафик упал в 3 раза), 1-2р., выручайте.
  

Элвин и бурундуки: Квадрология / Alvin and the Chipmunks: Qadrology (Тим Хилл, Бетти Томас, Майк Митчелл, Уолт Бекер) [2007-2015 , фэнтези, комедия, приключения, семейный, музыка, мультфильм, BDRip-AVC] piratbit.org

Элвин и бурундуки: Квадрология через торрент piratbit.org

Раздают: 1 [ 0 KB/s ] Качают: 1 [ 0 KB/s ]
Размер: 10.9 GB | Добавлен: 3 года 7 мес. назад | Торрент скачан:47 раз
Скачать  

04-04-2016 07:59 Элвин и бурундуки: Квадрология Скачать торрент  



Название: Элвин и бурундуки: Квадрология
Оригинальное название: Alvin and the Chipmunks: Qadrology

Год выхода: 2007, 2009, 2011, 2015 г.,
Жанр: фэнтези, комедия, приключения, семейный, музыка, мультфильм
Продолжительность: 01:31:13 | 01:28:34 | 01:27:11 | 01:32:00
Элвин и бурундуки / Alvin and the Chipmunks
«Here comes trouble»
Год выпуска: 2007
Страна: США / Bagdasarian Productions, Fox 2000 Pictures, Regency Enterprises.
Жанр: мультфильм, фэнтези, комедия, семейный, музыка
Продолжительность: 01:31:13
Перевод: Дубляж [BD CEE]
Субтитры: русские (полные + форс.), украинские (полные + форс.), английские
Навигация по главам: есть

Режиссер: Тим Хилл / Tim Hill
В ролях:

Джейсон Ли (Dave), Дэвид Кросс (Ian), Кэмерон Ричардсон (Claire), Джейн Линч (Gail), Джастин Лонг (Alvin, озвучка), Мэттью Грей Гублер (Simon, озвучка), Джесси МакКартни (Theodore, озвучка), Эллисон Карман (Female Intern #1), Тиара Паркер (Female Intern #2), Кира Веррастро (Female Intern #3), Вероника Алисино (Amy), Бэт Рисграф (Mother in Store)
Описание: Жизнь композитора была одной черной полосой до тех пор, пока он не встретил трех живых поющих бурундуков: лидера Элвина, гения Саймона и феерического Теодора. Поначалу они плохо уживаются вместе, но в конце концов Дэйв принимает бурундуков и даже становится менеджером их рок-группы, которая собирает стадионы поклонников.

Качество: BDRip-AVC
Формат: MKV
Видео кодек: AVC
Аудио кодек: AC3
Видео: 1080x584 (16:9), 3671 kbps, 23,976 fps, 0,243 bit/pixel
Аудио №1: AC3 / 5.1 / 48 kHz / 448 kbps / 16 bit | RUS
Аудио №2: AC3 / 5.1 / 48 kHz / 448 kbps / 16 bit | ENG

Код:

Общее
Уникальный идентификатор : 189781200180190404408447030043084372011 (0x8EC68795E3A2AA3498C4E48F63D8B82B)
Полное имя : 1#Elvin.i.Burunduki.2007.DUAL.BDRip.x264.-HELLYWOOD.mkv
Формат : Matroska
Версия формата : Version 4 / Version 2
Размер файла : 2,91 Гбайт
Продолжительность : 1 ч. 31 м.
Общий поток : 4561 Кбит/сек
Название фильма : Alvin and the Chipmunks (2007) - HELLYWOOD
Дата кодирования : UTC 2010-02-22 21:41:31
Программа кодирования : mkvmerge v5.8.0 ('No Sleep / Pillow') built on Sep 30 2012 10:57:14
Библиотека кодирования : libebml v1.3.0 + libmatroska v1.4.0

Видео
Идентификатор : 1
Формат : AVC
Формат/Информация : Advanced Video Codec
Профиль формата : High@L4.1
Параметр CABAC формата : Да
Параметр ReFrames формата : 10 кадров
Идентификатор кодека : V_MPEG4/ISO/AVC
Продолжительность : 1 ч. 31 м.
Битрейт : 3671 Кбит/сек
Ширина : 1080 пикселей
Высота : 584 пикселя
Соотношение сторон : 1,85:1
Режим частоты кадров : Постоянный
Частота кадров : 23,976 кадра/сек
Цветовое пространство : YUV
Субдискретизация насыщенности : 4:2:0
Битовая глубина : 8 бит
Тип развёртки : Прогрессивная
Бит/(Пиксели*Кадры) : 0.243
Размер потока : 2,28 Гбайт (78%)
Заголовок : potroks
Библиотека кодирования : x264 core 146 r2538 121396c
Настройки программы : cabac=1 / ref=10 / deblock=1:-3:-3 / analyse=0x3:0x113 / me=umh / subme=11 / psy=1 / psy_rd=0.94:0.00 / mixed_ref=1 / me_range=48 / chroma_me=1 / trellis=2 / 8x8dct=1 / cqm=0 / deadzone=21,11 / fast_pskip=0 / chroma_qp_offset=-2 / threads=9 / lookahead_threads=2 / sliced_threads=0 / nr=0 / decimate=1 / interlaced=0 / bluray_compat=0 / constrained_intra=0 / bframes=11 / b_pyramid=2 / b_adapt=2 / b_bias=0 / direct=3 / weightb=1 / open_gop=0 / weightp=2 / keyint=240 / keyint_min=23 / scenecut=40 / intra_refresh=0 / rc_lookahead=60 / rc=2pass / mbtree=0 / bitrate=3671 / ratetol=1.0 / qcomp=0.70 / qpmin=0 / qpmax=69 / qpstep=4 / cplxblur=20.0 / qblur=0.5 / vbv_maxrate=14000 / vbv_bufsize=14000 / nal_hrd=none / filler=0 / ip_ratio=1.35 / pb_ratio=1.25 / aq=1:0.80
Язык : English
Default : Да
Forced : Нет

Аудио #1
Идентификатор : 2
Формат : AC-3
Формат/Информация : Audio Coding 3
Расширение режима : CM (complete main)
Параметр Endianness формата : Big
Идентификатор кодека : A_AC3
Продолжительность : 1 ч. 31 м.
Вид битрейта : Постоянный
Битрейт : 448 Кбит/сек
Каналы : 6 каналов
Расположение каналов : Front: L C R, Side: L R, LFE
Частота : 48,0 КГц
Метод сжатия : С потерями
Размер потока : 292 Мбайт (10%)
Заголовок : Dub | DD 5.1 @ 448 kbps - Blu-Ray CEE
Язык : Russian
Default : Да
Forced : Нет

Аудио #2
Идентификатор : 3
Формат : AC-3
Формат/Информация : Audio Coding 3
Расширение режима : CM (complete main)
Параметр Endianness формата : Big
Идентификатор кодека : A_AC3
Продолжительность : 1 ч. 31 м.
Вид битрейта : Постоянный
Битрейт : 448 Кбит/сек
Каналы : 6 каналов
Расположение каналов : Front: L C R, Side: L R, LFE
Частота : 48,0 КГц
Метод сжатия : С потерями
Размер потока : 292 Мбайт (10%)
Заголовок : Original | DD 5.1 @ 448 kbps
Язык : English
Default : Нет
Forced : Нет

Текст #1
Идентификатор : 4
Формат : UTF-8
Идентификатор кодека : S_TEXT/UTF8
Идентификатор кодека/Информация : UTF-8 Plain Text
Заголовок : Forced
Язык : Russian
Default : Да
Forced : Нет

Текст #2
Идентификатор : 5
Формат : UTF-8
Идентификатор кодека : S_TEXT/UTF8
Идентификатор кодека/Информация : UTF-8 Plain Text
Заголовок : Blu-Ray
Язык : Russian
Default : Нет
Forced : Нет

Текст #3
Идентификатор : 6
Формат : UTF-8
Идентификатор кодека : S_TEXT/UTF8
Идентификатор кодека/Информация : UTF-8 Plain Text
Заголовок : Forced
Язык : Ukrainian
Default : Нет
Forced : Нет

Текст #4
Идентификатор : 7
Формат : UTF-8
Идентификатор кодека : S_TEXT/UTF8
Идентификатор кодека/Информация : UTF-8 Plain Text
Заголовок : Blu-Ray
Язык : Ukrainian
Default : Нет
Forced : Нет

Текст #5
Идентификатор : 8
Формат : UTF-8
Идентификатор кодека : S_TEXT/UTF8
Идентификатор кодека/Информация : UTF-8 Plain Text
Заголовок : Full
Язык : English
Default : Нет
Forced : Нет

Меню
00:00:00.000 : en:(01)00:00:00:000
00:03:03.141 : en:(02)00:03:03:141
00:05:09.600 : en:(03)00:05:09:600
00:08:46.484 : en:(04)00:08:46:484
00:10:48.564 : en:(05)00:10:48:564
00:14:12.893 : en:(06)00:14:12:893
00:16:33.033 : en:(07)00:16:33:033
00:20:54.586 : en:(08)00:20:54:586
00:25:21.353 : en:(09)00:25:21:353
00:27:44.371 : en:(10)00:27:44:371
00:34:03.291 : en:(11)00:34:03:291
00:37:56.065 : en:(12)00:37:56:065
00:40:09.782 : en:(13)00:40:09:782
00:43:35.863 : en:(14)00:43:35:863
00:44:58.779 : en:(15)00:44:58:779
00:50:49.212 : en:(16)00:50:49:212
00:57:57.140 : en:(17)00:57:57:140
01:01:32.397 : en:(18)01:01:32:397
01:04:49.010 : en:(19)01:04:49:010
01:06:18.432 : en:(20)01:06:18:432
01:08:29.188 : en:(21)01:08:29:188
01:11:49.763 : en:(22)01:11:49:763
01:14:14.992 : en:(23)01:14:14:992
01:17:12.461 : en:(24)01:17:12:461
01:20:28.448 : en:(25)01:20:28:448
01:22:00.957 : en:(26)01:22:00:957
01:25:26.246 : en:(27)01:25:26:246
01:26:17.046 : en:(28)01:26:17:046
01:31:13.718 : en:(29)01:31:13:718

Элвин и бурундуки 2 / Alvin and the Chipmunks: The Squeakquel
«The Boys are back in town... and they have competition»
Год выпуска: 2009
Страна: США / Bagdasarian Productions, Fox 2000 Pictures, Regency Enterprises.
Жанр: мультфильм, фэнтези, комедия, семейный, музыка
Продолжительность: 01:28:34
Перевод: Дубляж [BD CEE]
Субтитры: русские (полные + форс.), украинские (полные + форс.), английские
Навигация по главам: есть

Режиссер: Бетти Томас / Betty Thomas
В ролях:

Закари Левай (Toby), Дэвид Кросс (Ian), Джейсон Ли (Dave), Джастин Лонг (Alvin, озвучка), Мэттью Грей Гублер (Simon, озвучка), Джесси МакКартни (Theodore, озвучка), Эми Полер (Eleanor, озвучка), Анна Фэрис (Jeanette, озвучка), Кристина Эпплгейт (Brittany, озвучка), Уэнди Мэлик (Dr. Rubin), Анджела Н. Джонсон (Julie), Кэтрин Джустен (Aunt Jackie)
Описание: Три веселых бурундука Элвин, Саймон и Теодор поступают в школу, где их ждут новые приключения. Им придется столкнуться с множеством преград со стороны одноклассников. Но самое главное - их ожидает соперничество с новой музыкальной командой, состоящей из девочек-бурундуков, которое впоследствии перерастет в большую дружбу.

Качество: BDRip-AVC
Формат: MKV
Видео кодек: AVC
Аудио кодек: AC3
Видео: 1064x574 (1.854), 3808 kbps, 23,976 fps, 0,260 bit/pixel
Аудио №1: AC3 / 5.1 / 48 kHz / 448 kbps / 16 bit | RUS
Аудио №2: AC3 / 5.1 / 48 kHz / 448 kbps / 16 bit | ENG

Код:

Общее
Уникальный идентификатор : 207484269926963397389865020134342312710 (0x9C18044FE637525C8BE9C043531CC306)
Полное имя : 2#Elvin.i.Burunduki.2.2009.DUAL.BDRip.x264.-HELLYWOOD.mkv
Формат : Matroska
Версия формата : Version 4 / Version 2
Размер файла : 2,91 Гбайт
Продолжительность : 1 ч. 28 м.
Общий поток : 4706 Кбит/сек
Название фильма : Alvin and the Chipmunks: The Squeakquel (2009) - HELLYWOOD
Дата кодирования : UTC 2010-02-22 21:41:31
Программа кодирования : mkvmerge v5.8.0 ('No Sleep / Pillow') built on Sep 30 2012 10:57:14
Библиотека кодирования : libebml v1.3.0 + libmatroska v1.4.0

Видео
Идентификатор : 1
Формат : AVC
Формат/Информация : Advanced Video Codec
Профиль формата : High@L4.1
Параметр CABAC формата : Да
Параметр ReFrames формата : 10 кадров
Идентификатор кодека : V_MPEG4/ISO/AVC
Продолжительность : 1 ч. 28 м.
Битрейт : 3808 Кбит/сек
Ширина : 1064 пикселя
Высота : 574 пикселя
Соотношение сторон : 1,85:1
Режим частоты кадров : Постоянный
Частота кадров : 23,976 кадра/сек
Цветовое пространство : YUV
Субдискретизация насыщенности : 4:2:0
Битовая глубина : 8 бит
Тип развёртки : Прогрессивная
Бит/(Пиксели*Кадры) : 0.260
Размер потока : 2,30 Гбайт (79%)
Заголовок : potroks
Библиотека кодирования : x264 core 146 r2538 121396c
Настройки программы : cabac=1 / ref=10 / deblock=1:-3:-3 / analyse=0x3:0x113 / me=umh / subme=11 / psy=1 / psy_rd=0.94:0.00 / mixed_ref=1 / me_range=48 / chroma_me=1 / trellis=2 / 8x8dct=1 / cqm=0 / deadzone=21,11 / fast_pskip=0 / chroma_qp_offset=-2 / threads=9 / lookahead_threads=2 / sliced_threads=0 / nr=0 / decimate=1 / interlaced=0 / bluray_compat=0 / constrained_intra=0 / bframes=11 / b_pyramid=2 / b_adapt=2 / b_bias=0 / direct=3 / weightb=1 / open_gop=0 / weightp=2 / keyint=240 / keyint_min=23 / scenecut=40 / intra_refresh=0 / rc_lookahead=60 / rc=2pass / mbtree=0 / bitrate=3808 / ratetol=1.0 / qcomp=0.70 / qpmin=0 / qpmax=69 / qpstep=4 / cplxblur=20.0 / qblur=0.5 / vbv_maxrate=14000 / vbv_bufsize=14000 / nal_hrd=none / filler=0 / ip_ratio=1.35 / pb_ratio=1.25 / aq=1:0.80
Язык : English
Default : Да
Forced : Нет

Аудио #1
Идентификатор : 2
Формат : AC-3
Формат/Информация : Audio Coding 3
Расширение режима : CM (complete main)
Параметр Endianness формата : Big
Идентификатор кодека : A_AC3
Продолжительность : 1 ч. 28 м.
Вид битрейта : Постоянный
Битрейт : 448 Кбит/сек
Каналы : 6 каналов
Расположение каналов : Front: L C R, Side: L R, LFE
Частота : 48,0 КГц
Метод сжатия : С потерями
Размер потока : 284 Мбайт (10%)
Заголовок : Dub | DD 5.1 @ 448 kbps - Blu-Ray CEE
Язык : Russian
Default : Да
Forced : Нет

Аудио #2
Идентификатор : 3
Формат : AC-3
Формат/Информация : Audio Coding 3
Расширение режима : CM (complete main)
Параметр Endianness формата : Big
Идентификатор кодека : A_AC3
Продолжительность : 1 ч. 28 м.
Вид битрейта : Постоянный
Битрейт : 448 Кбит/сек
Каналы : 6 каналов
Расположение каналов : Front: L C R, Side: L R, LFE
Частота : 48,0 КГц
Метод сжатия : С потерями
Размер потока : 284 Мбайт (10%)
Заголовок : Original | DD 5.1 @ 448 kbps
Язык : English
Default : Нет
Forced : Нет

Текст #1
Идентификатор : 4
Формат : UTF-8
Идентификатор кодека : S_TEXT/UTF8
Идентификатор кодека/Информация : UTF-8 Plain Text
Заголовок : Forced [potroks]
Язык : Russian
Default : Да
Forced : Нет

Текст #2
Идентификатор : 5
Формат : UTF-8
Идентификатор кодека : S_TEXT/UTF8
Идентификатор кодека/Информация : UTF-8 Plain Text
Заголовок : Blu-Ray
Язык : Russian
Default : Нет
Forced : Нет

Текст #3
Идентификатор : 6
Формат : UTF-8
Идентификатор кодека : S_TEXT/UTF8
Идентификатор кодека/Информация : UTF-8 Plain Text
Заголовок : Forced [potroks]
Язык : Ukrainian
Default : Нет
Forced : Нет

Текст #4
Идентификатор : 7
Формат : UTF-8
Идентификатор кодека : S_TEXT/UTF8
Идентификатор кодека/Информация : UTF-8 Plain Text
Заголовок : Blu-Ray
Язык : Ukrainian
Default : Нет
Forced : Нет

Текст #5
Идентификатор : 8
Формат : UTF-8
Идентификатор кодека : S_TEXT/UTF8
Идентификатор кодека/Информация : UTF-8 Plain Text
Заголовок : Full
Язык : English
Default : Нет
Forced : Нет

Меню
00:00:00.000 : en:(01)00:00:00:000
00:01:52.237 : en:(02)00:01:52:237
00:03:11.608 : en:(03)00:03:11:608
00:05:12.937 : en:(04)00:05:12:937
00:08:11.532 : en:(05)00:08:11:532
00:11:25.226 : en:(06)00:11:25:226
00:14:18.983 : en:(07)00:14:18:983
00:16:20.604 : en:(08)00:16:20:604
00:21:41.425 : en:(09)00:21:41:425
00:26:26.001 : en:(10)00:26:26:001
00:28:29.332 : en:(11)00:28:29:332
00:31:18.084 : en:(12)00:31:18:084
00:35:15.738 : en:(13)00:35:15:738
00:39:38.626 : en:(14)00:39:38:626
00:42:49.483 : en:(15)00:42:49:483
00:44:59.738 : en:(16)00:44:59:738
00:48:25.402 : en:(17)00:48:25:402
00:54:13.458 : en:(18)00:54:13:458
00:56:37.519 : en:(19)00:56:37:519
00:59:06.251 : en:(20)00:59:06:251
01:02:32.999 : en:(21)01:02:32:999
01:06:31.946 : en:(22)01:06:31:946
01:10:49.745 : en:(23)01:10:49:745
01:14:49.735 : en:(24)01:14:49:735
01:16:41.054 : en:(25)01:16:41:054
01:20:08.595 : en:(26)01:20:08:595
01:21:23.587 : en:(27)01:21:23:587
01:22:23.104 : en:(28)01:22:23:104
01:28:34.058 : en:(29)01:28:34:058

Элвин и бурундуки 3 / Alvin and the Chipmunks: Chipwrecked
«Полундра!»
Год выпуска: 2011
Страна: США / Bagdasarian Productions, Fox 2000 Pictures, Regency Enterprises.
Жанр: мультфильм, фэнтези, комедия, приключения, семейный, музыка
Продолжительность: 01:27:11
Перевод: Дубляж [BD CEE]
Субтитры: русские (полные + форс.), украинские (полные + форс.), английские (Full + SDH)
Навигация по главам: есть

Режиссер: Майк Митчелл / Mike Mitchell
В ролях:

Джейсон Ли (Dave), Дэвид Кросс (Ian), Дженни Слейт (Zoe), Джастин Лонг (Alvin, озвучка), Мэттью Грей Гублер (Simon, озвучка), Джесси МакКартни (Theodore, озвучка), Эми Полер (Eleanor, озвучка), Анна Фэрис (Jeanette, озвучка), Кристина Эпплгейт (Brittany, озвучка), Алан Тьюдик (Simone, озвучка), Майкл П. Норти (Hawaiian Shirt Guy), София Агияр (Club Woman #1)
Описание: Приключения троицы непоседливых братьев-бурундуков продолжаются! Элвин, Саймон и Теодор, а также их подруги бурундушки, просто не могут оставаться в стороне от различного рода неприятностей, сулящих им новые увлекательные приключения. Что на этот раз уготовила судьба нашим героям, и как они выпутаются из очередной передряги - вот в чём вопрос.

Качество: BDRip-AVC
Формат: MKV
Видео кодек: AVC
Аудио кодек: AC3
Видео: 1060x572 (1.853), 3882 kbps, 23,976 fps, 0,267 bit/pixel
Аудио №1: AC3 / 5.1 / 48 kHz / 448 kbps / 16 bit | RUS
Аудио №2: AC3 / 5.1 / 48 kHz / 448 kbps / 16 bit | ENG

Код:

Общее
Уникальный идентификатор : 223792066804533816005945579548165580755 (0xA85CC8C6694A5F6684F6CE1C0B3CA7D3)
Полное имя : 3#Elvin.i.Burunduki.3.2011.DUAL.BDRip.x264.-HELLYWOOD.mkv
Формат : Matroska
Версия формата : Version 4 / Version 2
Размер файла : 2,91 Гбайт
Продолжительность : 1 ч. 27 м.
Общий поток : 4772 Кбит/сек
Название фильма : Alvin and the Chipmunks: Chipwrecked (2011) - HELLYWOOD
Дата кодирования : UTC 2010-02-22 21:41:31
Программа кодирования : mkvmerge v5.8.0 ('No Sleep / Pillow') built on Sep 30 2012 10:57:14
Библиотека кодирования : libebml v1.3.0 + libmatroska v1.4.0

Видео
Идентификатор : 1
Формат : AVC
Формат/Информация : Advanced Video Codec
Профиль формата : High@L4.1
Параметр CABAC формата : Да
Параметр ReFrames формата : 10 кадров
Идентификатор кодека : V_MPEG4/ISO/AVC
Продолжительность : 1 ч. 27 м.
Битрейт : 3882 Кбит/сек
Ширина : 1060 пикселей
Высота : 572 пикселя
Соотношение сторон : 1,85:1
Режим частоты кадров : Постоянный
Частота кадров : 23,976 кадра/сек
Цветовое пространство : YUV
Субдискретизация насыщенности : 4:2:0
Битовая глубина : 8 бит
Тип развёртки : Прогрессивная
Бит/(Пиксели*Кадры) : 0.267
Размер потока : 2,30 Гбайт (79%)
Заголовок : potroks
Библиотека кодирования : x264 core 146 r2538 121396c
Настройки программы : cabac=1 / ref=10 / deblock=1:-3:-3 / analyse=0x3:0x113 / me=umh / subme=11 / psy=1 / psy_rd=0.94:0.00 / mixed_ref=1 / me_range=48 / chroma_me=1 / trellis=2 / 8x8dct=1 / cqm=0 / deadzone=21,11 / fast_pskip=0 / chroma_qp_offset=-2 / threads=9 / lookahead_threads=2 / sliced_threads=0 / nr=0 / decimate=1 / interlaced=0 / bluray_compat=0 / constrained_intra=0 / bframes=11 / b_pyramid=2 / b_adapt=2 / b_bias=0 / direct=3 / weightb=1 / open_gop=0 / weightp=2 / keyint=240 / keyint_min=23 / scenecut=40 / intra_refresh=0 / rc_lookahead=60 / rc=2pass / mbtree=0 / bitrate=3882 / ratetol=1.0 / qcomp=0.70 / qpmin=0 / qpmax=69 / qpstep=4 / cplxblur=20.0 / qblur=0.5 / vbv_maxrate=14000 / vbv_bufsize=14000 / nal_hrd=none / filler=0 / ip_ratio=1.35 / pb_ratio=1.25 / aq=1:0.80
Язык : English
Default : Да
Forced : Нет

Аудио #1
Идентификатор : 2
Формат : AC-3
Формат/Информация : Audio Coding 3
Расширение режима : CM (complete main)
Параметр Endianness формата : Big
Идентификатор кодека : A_AC3
Продолжительность : 1 ч. 27 м.
Вид битрейта : Постоянный
Битрейт : 448 Кбит/сек
Каналы : 6 каналов
Расположение каналов : Front: L C R, Side: L R, LFE
Частота : 48,0 КГц
Метод сжатия : С потерями
Размер потока : 279 Мбайт (9%)
Заголовок : Dub | DD 5.1 @ 448 kbps - Blu-Ray CEE
Язык : Russian
Default : Да
Forced : Нет

Аудио #2
Идентификатор : 3
Формат : AC-3
Формат/Информация : Audio Coding 3
Расширение режима : CM (complete main)
Параметр Endianness формата : Big
Идентификатор кодека : A_AC3
Продолжительность : 1 ч. 27 м.
Вид битрейта : Постоянный
Битрейт : 448 Кбит/сек
Каналы : 6 каналов
Расположение каналов : Front: L C R, Side: L R, LFE
Частота : 48,0 КГц
Метод сжатия : С потерями
Размер потока : 279 Мбайт (9%)
Заголовок : Original | DD 5.1 @ 448 kbps
Язык : English
Default : Нет
Forced : Нет

Текст #1
Идентификатор : 4
Формат : UTF-8
Идентификатор кодека : S_TEXT/UTF8
Идентификатор кодека/Информация : UTF-8 Plain Text
Заголовок : Forsed [potroks]
Язык : Russian
Default : Да
Forced : Нет

Текст #2
Идентификатор : 5
Формат : UTF-8
Идентификатор кодека : S_TEXT/UTF8
Идентификатор кодека/Информация : UTF-8 Plain Text
Заголовок : Blu-Ray
Язык : Russian
Default : Нет
Forced : Нет

Текст #3
Идентификатор : 6
Формат : UTF-8
Идентификатор кодека : S_TEXT/UTF8
Идентификатор кодека/Информация : UTF-8 Plain Text
Заголовок : Forsed [potroks]
Язык : Ukrainian
Default : Нет
Forced : Нет

Текст #4
Идентификатор : 7
Формат : UTF-8
Идентификатор кодека : S_TEXT/UTF8
Идентификатор кодека/Информация : UTF-8 Plain Text
Заголовок : Blu-Ray
Язык : Ukrainian
Default : Нет
Forced : Нет

Текст #5
Идентификатор : 8
Формат : UTF-8
Идентификатор кодека : S_TEXT/UTF8
Идентификатор кодека/Информация : UTF-8 Plain Text
Заголовок : Full
Язык : English
Default : Нет
Forced : Нет

Текст #6
Идентификатор : 9
Формат : UTF-8
Идентификатор кодека : S_TEXT/UTF8
Идентификатор кодека/Информация : UTF-8 Plain Text
Заголовок : SDH
Язык : English
Default : Нет
Forced : Нет

Меню
00:00:00.000 : en:00:00:00.000
00:02:21.391 : en:00:02:21.391
00:04:26.558 : en:00:04:26.558
00:08:30.135 : en:00:08:30.135
00:11:43.411 : en:00:11:43.411
00:13:49.954 : en:00:13:49.954
00:16:55.556 : en:00:16:55.556
00:22:45.155 : en:00:22:45.155
00:24:39.895 : en:00:24:39.895
00:27:38.991 : en:00:27:38.991
00:29:19.633 : en:00:29:19.633
00:31:41.191 : en:00:31:41.191
00:36:48.164 : en:00:36:48.164
00:41:45.211 : en:00:41:45.211
00:45:26.557 : en:00:45:26.557
00:47:52.995 : en:00:47:52.995
00:51:58.991 : en:00:51:58.991
00:55:32.454 : en:00:55:32.454
00:59:57.052 : en:00:59:57.052
01:04:05.133 : en:01:04:05.133
01:06:46.085 : en:01:06:46.085
01:13:06.716 : en:01:13:06.716
01:16:08.731 : en:01:16:08.731
01:18:42.217 : en:01:18:42.217

Элвин и бурундуки: Грандиозное бурундуключение / Alvin and the Chipmunks: The Road Chip
«Fast & furry-ous»
Год выпуска: 2015
Страна: США / Fox 2000 Pictures...
Жанр: мультфильм, фэнтези, комедия, приключения, семейный, музыка
Продолжительность: 01:32:00
Перевод: Дубляж [BD CEE]
Субтитры: русские (форсированные, полные), украинские (форсированные, полные), английские (форсированные, полные)
Навигация по главам: есть

Режиссер: Уолт Бекер / Walt Becker
В ролях:

Джейсон Ли (Dave), Джастин Лонг (Alvin, озвучка), Мэттью Грей Гублер (Simon, озвучка), Джесси МакКартни (Theodore, озвучка), Кимберли Уильямс-Пэйсли (Samantha), Джош Грин (Miles), Тони Хейл (Agent Suggs), Белла Торн (Ashley Grey), Эдди Стиплз (Barry), Кристина Эпплгейт (Brittany, озвучка), Кейли Куоко-Суитинг (Eleanor, озвучка), Анна Фэрис (Jeanette, озвучка)
Описание: Бурундуки пойдут на всё, чтобы сохранить свою семью, даже на грандиозное бурундуключение по всей Америке!
Когда Бурундуки видят, что Дэйв берет с собой коробочку с кольцом в поездку в Майами, они отчаянно пытаются помешать ему сделать предложение его девушке - из опасения, что мачеха и сводный брат внесут перемены в их семейную идиллию. Но после того, как их помещают в черный список за хулиганское поведение в самолете, Элвин, Саймон, Теодор и их будущий брат Майлз отправляются в самое важное путешествие в их жизни через всю страну, чтобы успеть помешать помолвке.

Качество: BDRip-AVC
Формат: MKV
Видео кодек: AVC
Аудио кодек: AC3
Видео: 1024x552 (1.855), 2496 kbps, 23,976 fps, 0,184 bit/pixel
Аудио №1: AC3 / 5.1 / 48 kHz / 448 kbps / 16 bit | RUS
Аудио №2: AC3 / 5.1 / 48 kHz / 448 kbps / 16 bit | ENG

Код:

Общее
Уникальный идентификатор : 170716365195825500127694544592538233769 (0x806EC6A626954FC195031DFD3304EBA9)
Полное имя : 4#Elvin.&.Burunduki.Grandioznoye.Burunduklucheniye.2015.DUAL.BDRip.x264.by_potroks.mkv
Формат : Matroska
Версия формата : Version 4 / Version 2
Размер файла : 2,18 Гбайт
Продолжительность : 1 ч. 32 м.
Общий поток : 3390 Кбит/сек
Название фильма : Alvin and the Chipmunks: The Road Chip (2015)
Дата кодирования : UTC 2016-04-02 07:38:50
Программа кодирования : mkvmerge v5.9.0 ('On The Loose') built on Dec 15 2012 16:39:58
Библиотека кодирования : libebml v1.3.0 + libmatroska v1.4.0

Видео
Идентификатор : 1
Формат : AVC
Формат/Информация : Advanced Video Codec
Профиль формата : High@L4.1
Параметр CABAC формата : Да
Параметр ReFrames формата : 12 кадров
Идентификатор кодека : V_MPEG4/ISO/AVC
Продолжительность : 1 ч. 32 м.
Битрейт : 2496 Кбит/сек
Ширина : 1024 пикселя
Высота : 552 пикселя
Соотношение сторон : 1,85:1
Режим частоты кадров : Постоянный
Частота кадров : 23,976 кадра/сек
Цветовое пространство : YUV
Субдискретизация насыщенности : 4:2:0
Битовая глубина : 8 бит
Тип развёртки : Прогрессивная
Бит/(Пиксели*Кадры) : 0.184
Размер потока : 1,56 Гбайт (72%)
Заголовок : potroks
Библиотека кодирования : x264 core 146 r2538 121396c
Настройки программы : cabac=1 / ref=12 / deblock=1:-2:-2 / analyse=0x3:0x113 / me=umh / subme=11 / psy=1 / psy_rd=1.00:0.05 / mixed_ref=1 / me_range=48 / chroma_me=1 / trellis=2 / 8x8dct=1 / cqm=0 / deadzone=21,11 / fast_pskip=0 / chroma_qp_offset=-3 / threads=9 / lookahead_threads=2 / sliced_threads=0 / nr=0 / decimate=0 / interlaced=0 / bluray_compat=0 / constrained_intra=0 / bframes=13 / b_pyramid=2 / b_adapt=2 / b_bias=0 / direct=3 / weightb=1 / open_gop=0 / weightp=2 / keyint=240 / keyint_min=23 / scenecut=40 / intra_refresh=0 / rc_lookahead=60 / rc=2pass / mbtree=0 / bitrate=2496 / ratetol=1.0 / qcomp=0.70 / qpmin=0 / qpmax=69 / qpstep=4 / cplxblur=20.0 / qblur=0.5 / vbv_maxrate=14000 / vbv_bufsize=14000 / nal_hrd=none / filler=0 / ip_ratio=1.35 / pb_ratio=1.25 / aq=1:0.80
Язык : English
Default : Да
Forced : Нет

Аудио #1
Идентификатор : 2
Формат : AC-3
Формат/Информация : Audio Coding 3
Расширение режима : CM (complete main)
Параметр Endianness формата : Big
Идентификатор кодека : A_AC3
Продолжительность : 1 ч. 32 м.
Вид битрейта : Постоянный
Битрейт : 448 Кбит/сек
Каналы : 6 каналов
Расположение каналов : Front: L C R, Side: L R, LFE
Частота : 48,0 КГц
Метод сжатия : С потерями
Размер потока : 295 Мбайт (13%)
Заголовок : Dub | DD 5.1 @ 448 kbps - Blu-ray CEE
Язык : Russian
Default : Да
Forced : Нет

Аудио #2
Идентификатор : 3
Формат : AC-3
Формат/Информация : Audio Coding 3
Расширение режима : CM (complete main)
Параметр Endianness формата : Big
Идентификатор кодека : A_AC3
Продолжительность : 1 ч. 32 м.
Вид битрейта : Постоянный
Битрейт : 448 Кбит/сек
Каналы : 6 каналов
Расположение каналов : Front: L C R, Side: L R, LFE
Частота : 48,0 КГц
Метод сжатия : С потерями
Размер потока : 295 Мбайт (13%)
Заголовок : Original | DD 5.1 @ 448 kbps
Язык : English
Default : Нет
Forced : Нет

Текст #1
Идентификатор : 4
Формат : UTF-8
Идентификатор кодека : S_TEXT/UTF8
Идентификатор кодека/Информация : UTF-8 Plain Text
Заголовок : Forced [iTunes]
Язык : Russian
Default : Нет
Forced : Нет

Текст #2
Идентификатор : 5
Формат : UTF-8
Идентификатор кодека : S_TEXT/UTF8
Идентификатор кодека/Информация : UTF-8 Plain Text
Заголовок : Forced [potroks]
Язык : Russian
Default : Да
Forced : Нет

Текст #3
Идентификатор : 6
Формат : UTF-8
Идентификатор кодека : S_TEXT/UTF8
Идентификатор кодека/Информация : UTF-8 Plain Text
Заголовок : iTunes
Язык : Russian
Default : Нет
Forced : Нет

Текст #4
Идентификатор : 7
Формат : UTF-8
Идентификатор кодека : S_TEXT/UTF8
Идентификатор кодека/Информация : UTF-8 Plain Text
Заголовок : Forced [potroks]
Язык : Ukrainian
Default : Нет
Forced : Нет

Текст #5
Идентификатор : 8
Формат : UTF-8
Идентификатор кодека : S_TEXT/UTF8
Идентификатор кодека/Информация : UTF-8 Plain Text
Заголовок : iTunes
Язык : Ukrainian
Default : Нет
Forced : Нет

Текст #6
Идентификатор : 9
Формат : UTF-8
Идентификатор кодека : S_TEXT/UTF8
Идентификатор кодека/Информация : UTF-8 Plain Text
Заголовок : Forced
Язык : English
Default : Нет
Forced : Нет

Текст #7
Идентификатор : 10
Формат : UTF-8
Идентификатор кодека : S_TEXT/UTF8
Идентификатор кодека/Информация : UTF-8 Plain Text
Заголовок : Full
Язык : English
Default : Нет
Forced : Нет

Текст #8
Идентификатор : 11
Формат : UTF-8
Идентификатор кодека : S_TEXT/UTF8
Идентификатор кодека/Информация : UTF-8 Plain Text
Заголовок : SDH
Язык : English
Default : Нет
Forced : Нет

Меню
00:00:00.000 : en:Chapter 01
00:05:35.209 : en:Chapter 03
00:08:09.322 : en:Chapter 05
00:12:31.041 : en:Chapter 07
00:16:40.332 : en:Chapter 09
00:20:11.084 : en:Chapter 11
00:22:45.447 : en:Chapter 13
00:24:56.870 : en:Chapter 15
00:27:57.217 : en:Chapter 17
00:30:30.828 : en:Chapter 19
00:35:27.750 : en:Chapter 21
00:39:55.059 : en:Chapter 23
00:42:55.531 : en:Chapter 25
00:45:58.505 : en:Chapter 27
00:49:43.480 : en:Chapter 29
00:55:16.563 : en:Chapter 31
00:58:13.489 : en:Chapter 33
01:01:46.244 : en:Chapter 35
01:04:39.000 : en:Chapter 37
01:09:26.662 : en:Chapter 39
01:13:25.859 : en:Chapter 41
01:16:30.877 : en:Chapter 43
01:21:39.811 : en:Chapter 45
01:25:03.932 : en:Chapter 47
01:31:59.930 : en:Chapter 48

piratbit.org



Скачать Элвин и бурундуки: Квадрология через торрент http://i75.fastpic.ru/big/2016/0404/52/049cdbf07546db161b5d0b801fb90152.png Скачать фильм Элвин и бурундуки: Квадрология через торрент бесплантно в хорошем качестве Описание: Жизнь композитора была одной черной полосой до тех пор, пока он не встретил трех живых поющих бурундуков: лидера Элвина, гения ... 10 10 3
Info! Золотая раздача, скачанное не засчитывается.
Торрент: Зарегистрирован [2016-04-04 07:59] · скачан: 47 раз
Статус: √ проверено
Размер: 10.9 GB
Как cкачать? Как скачать Элвин и бурундуки: Квадрология через торрент | qTorrent


>> Регистрируемся здесь <<






Отзывы и комментарии о схеме читаем и пишем здесь: ---> Отзывы и комментарии о схеме

Новые благодарочки в телеграм довольных пользователей:
скриншот   скриншот   скриншот   скриншот   скриншот
    Дорогой пользователь! Огромная просьба, поблагодарите релизера, оцените раздачу и оставьте свои комментарий, если Вы скачали Элвин и бурундуки: Квадрология через торрент бесплатно! Внесите свою лепту в развитие PiratBit!
    Комментировать посты могут только пользователи прошедшие не сложную регистрацию
    Показать сообщения:    

    Элвин и бурундуки: Квадрология через торрент
    Скачать бесплатно Элвин и бурундуки: Квадрология
    Элвин и бурундуки: Квадрология скачать торрент
    Элвин и бурундуки: Квадрология смотреть онлайн
    Cкачать фильм Элвин и бурундуки: Квадрология бесплатно
    Элвин и бурундуки: Квадрология скачать торрент в хорошем качестве
    Элвин и бурундуки: Квадрология смотреть онлайн бесплатно в хорошем качестве


    Вы не можете начинать темы
    Вы не можете отвечать на сообщения
    Вы не можете редактировать свои сообщения
    Вы не можете удалять свои сообщения
    Вы не можете голосовать в опросах
    Вы не можете прикреплять файлы к сообщениям
    Вы можете скачивать файлы