Аватар: Путь воды

Дубляж

смотреть онлайн / скачать торрент Гран туризмо

Дубляж

смотреть онлайн / скачать торрент Кентавр

Лицензия

Активация Mortal Kombat 1

Premium

Активация Lies of P

Deluxe

Активация Resident evil 4 remake+DLC Separate Ways

Игра+DLC

смотреть онлайн / скачать торрент Два, три, демон, приди!

MVO

смотреть онлайн / скачать торрент Форсаж 10

Лицензия

смотреть онлайн / скачать торрент Ведьмак / The Witcher / Сезон: 3

3 сезон

смотреть онлайн / скачать торрент Стражи Галактики. Часть 3

Дубляж

Рекомендуем

Рекомендуем

ВАЖНО

ВАЖНО

30

Лицензия

ARMORED CORE™ VI FIRES OF RUBICON™

Steam-Rip

jed

RePack

PAYDAY 3

Пиратка

RDR2

RePack

Hogwarts Legacy

Steam-Rip

смотреть онлайн / скачать торрент Захваченный

Невафильм

смотреть онлайн / скачать торрент Острые козырьки 6 сезон

6 сезон

FAR CRY 6

RePack

смотреть онлайн / скачать торрент Доктор Стрэндж

Лицензия

скачать торрент Dead Island™ 2

EGS-Rip

скачать торрент The Quarry

Steam-Rip

смотреть онлайн / скачать торрент Мэверик

Лицензия

  

Тени (Надежда Кошеверова, спам Акимов) [1953, cccp, драма, мелодрама, DVDRip от AVP Studio]

Тени через торрент piratbit.org

Размер: 1.46 GB | Добавлен: 7 лет 5 мес. назад | Торрент скачан:11 раз
STARFIELD активация

2016-04-04 12:47 Тени Скачать торрент  

Тени
Страна: cccp
Производство: Ленфильм

Жанр: драма, мелодрама
Год выпуска: 1953
Продолжительность: 01:44:15

Перевод: Не требуется
Cубтитры: нет
Оригинальная аудиодорожка: русский

Режиссер: Надежда Кошеверова, спам Акимов

В ролях:
Валентин Лебедев, Владимир Петров, Галина Короткевич, Вера Будрейко, Юрий Бубликов, Анатолий Абрамов, Александр Гюльцен, Овсей Каган, В. Фомичев, Дмитрий Бессонов, Евгений Гвоздев...
Полный список актёров

Описание:
Фильм-спектакль по одноименной пьесе М. Е. Салтыкова-Щедрина.
Экранизация спектакля Ленинградского театра им. Ленсовета.
60-е годы XIX века. Из провинции в Петербург приезжает либерально настроенный молодой чиновник Бобырев. Он надеется под покровительством своего школьного товарища Клаверова, ставшего генералом, сделать карьеру. Генерал с радостью определяет Бобырева в свою канцелярию, и уже выстраивает планы, как через красавицу Софью, жену Бобырева, будет вести успешную борьбу с противниками и влиять на сластолюбивого министра Тараканова…

Источник: DVD5 R5
Качество видео: DVDRip
Формат видео: AVI

Видео: 688x512 (4:3), 25 fps, XviD ~ 1804 kbps avg, 0.205 bit/pixel
Аудио: 48 kHz, Dolby Digital AC3 2.0, 192 kbps

Раздача от:
Общее
Полное имя : Teni.1953.DVDRip_[New-team]_by_AVP_Studio.avi
Формат : AVI
Формат/Информация : Audio Video Interleave
Размер файла : 1,46 Гбайт
Продолжительность : 1 ч. 44 м.
Общий поток : 2005 Кбит/сек
Программа кодирования : VirtualDubMod 1.5.10.3 | www.virtualdub-fr.org || (build 2550/release)
Библиотека кодирования : VirtualDubMod build 2550/release

Видео
Идентификатор : 0
Формат : MPEG-4 Visual
Профиль формата : Advanced Simple@L5
Параметр BVOP формата : 1
Параметр QPel формата : Нет
Параметр GMC формата : Без точки перехода
Параметр матрицы формата : Выборочная
Идентификатор кодека : XVID
Идентификатор кодека/Подсказка : XviD
Продолжительность : 1 ч. 44 м.
Битрейт : 1804 Кбит/сек
Ширина : 688 пикселей
Высота : 512 пикселей
Соотношение сторон : 4:3
Частота кадров : 25,000 кадров/сек
Цветовое пространство : YUV
Субдискретизация насыщенности : 4:2:0
Битовая глубина : 8 бит
Тип развёртки : Прогрессивная
Метод сжатия : С потерями
Бит/(Пиксели*Кадры) : 0.205
Размер потока : 1,31 Гбайт (90%)
Библиотека кодирования : XviD 1.2.1 (UTC 2008-12-04)

Аудио
Идентификатор : 1
Формат : AC-3
Формат/Информация : Audio Coding 3
Расширение режима : CM (complete main)
Параметр Endianness формата : Big
Идентификатор кодека : 2000
Продолжительность : 1 ч. 44 м.
Вид битрейта : Постоянный
Битрейт : 192 Кбит/сек
Каналы : 2 канала
Расположение каналов : Front: L R
Частота : 48,0 КГц
Частота кадров : 31,250 кадров/сек (1536 spf)
Метод сжатия : С потерями
Размер потока : 143 Мбайт (10%)
Выравнивание : Разделение по промежуткам
Продолжительность промежутка : 40 мс. (1,00 видеокадр)
Время предзагрузки промежутка : 500 мс


Что делать, если пишет видео недоступно?
Смотрeть онлайн фильм Тени в хорошем HD 1080 качестве



Описание:Фильм-спектакль по одноименной пьесе М. Е. Салтыкова-Щедрина.Экранизация спектакля Ленинградского театра им. Ленсовета.60-е годы ... http://s017.radikal.ru/i443/1604/5c/e9672154a7a6.png http://s017.radikal.ru/i443/1604/5c/e9672154a7a6.png 2016-04-04 12:47 Cмотреть онлайн Тени true ru Скачать Тени через торрент, смотреть онлайн Тени http://s017.radikal.ru/i443/1604/5c/e9672154a7a6.png Скачать, смотреть онлайн Тени бесплатно в хорошем качестве Описание:Фильм-спектакль по одноименной пьесе М. Е. Салтыкова-Щедрина.Экранизация спектакля Ленинградского театра им. Ленсовета.60-е годы ... 10 10 1
Info! Золотая раздача, скачанное не засчитывается.
Торрент: Зарегистрирован [2016-04-04 12:47] · скачан: 11 раз
Статус: √ проверено
Размер: 1.46 GB
Как cкачать? Как скачать Тени через торрент | UTorrent | Поделиться в телеграм

28-11-2019 20:33  


Отключить вcю реклaмy на сайте, в т.ч. и в плеере онлайн просмотра!

    Дорогой пользователь! Огромная просьба, поблагодарите релизера, оцените раздачу и оставьте свои комментарий, если Вы скачали Тени через торрент бесплатно!!
    Комментировать посты могут только пользователи прошедшие не сложную регистрацию
    Показать сообщения:    


    смотреть онлайн Тени
    Тени через торрент
    Скачать бесплатно Тени
    Тени скачать торрент
    Тени смотреть онлайн
    Cкачать фильм Тени бесплатно
    Тени скачать торрент в хорошем качестве
    Тени смотреть онлайн бесплатно в хорошем качестве
    Вы не можете начинать темы
    Вы не можете отвечать на сообщения
    Вы не можете редактировать свои сообщения
    Вы не можете удалять свои сообщения
    Вы не можете голосовать в опросах
    Вы не можете прикреплять файлы к сообщениям
    Вы можете скачивать файлы