Лицензия

MVO

1

1 сезон

Лицензия

Лицензия

13

MVO

1 сезон

Deluxe Edition

pack

Рекомендуем

30

Repack

ВАЖНО

ВАЖНО

Ghostwire

RePack

jed

RePack

fifa19

RePack

RDR2

RePack

NEED FOR SPEED™ PAYBACK

RePack

Кинопоиск HD

 Острые козырьки 6 сезон

6 сезон

FAR CRY 6

RePack

Лицензия

MVO

1

1 сезон

1 сезон

Лицензия

  

Тени (Надежда Кошеверова, Николай Акимов) [1953, СССР, драма, мелодрама, DVDRip от AVP Studio]

Тени через торрент piratbit.org

Размер: 746 MB | Добавлен: 6 лет 5 мес. назад | Торрент скачан:7 раз
Смотреть онлайн Тени | Скачать   

04-04-2016 12:47 Тени Скачать торрент  

Тени
Страна: СССР
Производство: Ленфильм

Жанр: драма, мелодрама
Год выпуска: 1953
Продолжительность: 01:44:15

Перевод: Не требуется
Cубтитры: нет
Оригинальная аудиодорожка: русский

Режиссер: Надежда Кошеверова, Николай Акимов

В ролях:
Валентин Лебедев, Владимир Петров, Галина Короткевич, Вера Будрейко, Юрий Бубликов, Анатолий Абрамов, Александр Гюльцен, Овсей Каган, В. Фомичев, Дмитрий Бессонов, Евгений Гвоздев...
Полный список актёров

Описание:
Фильм-спектакль по одноименной пьесе М. Е. Салтыкова-Щедрина.
Экранизация спектакля Ленинградского театра им. Ленсовета.
60-е годы XIX века. Из провинции в Петербург приезжает либерально настроенный молодой чиновник Бобырев. Он надеется под покровительством своего школьного товарища Клаверова, ставшего генералом, сделать карьеру. Генерал с радостью определяет Бобырева в свою канцелярию, и уже выстраивает планы, как через красавицу Софью, жену Бобырева, будет вести успешную борьбу с противниками и влиять на сластолюбивого министра Тараканова…

Источник: DVD5 R5
Качество видео: DVDRip
Формат видео: AVI

Видео: 576x432 (4:3), 25 fps, XviD ~ 863 kbps avg, 0.139 bit/pixel
Аудио: 48 kHz, MP3 2.0, 128 kbps

Раздача от:
Общее
Полное имя : Teni.1953.DVDRip-745_[New-team]_by_AVP_Studio.avi
Формат : AVI
Формат/Информация : Audio Video Interleave
Размер файла : 746 Мбайт
Продолжительность : 1 ч. 44 м.
Общий поток : 1001 Кбит/сек
Программа кодирования : VirtualDubMod 1.5.10.3 | www.virtualdub-fr.org || (build 2550/release)
Библиотека кодирования : VirtualDubMod build 2550/release

Видео
Идентификатор : 0
Формат : MPEG-4 Visual
Профиль формата : Advanced Simple@L5
Параметр BVOP формата : 1
Параметр QPel формата : Нет
Параметр GMC формата : Без точки перехода
Параметр матрицы формата : Выборочная
Идентификатор кодека : XVID
Идентификатор кодека/Подсказка : XviD
Продолжительность : 1 ч. 44 м.
Битрейт : 863 Кбит/сек
Ширина : 576 пикселей
Высота : 432 пикселя
Соотношение сторон : 4:3
Частота кадров : 25,000 кадров/сек
Цветовое пространство : YUV
Субдискретизация насыщенности : 4:2:0
Битовая глубина : 8 бит
Тип развёртки : Прогрессивная
Метод сжатия : С потерями
Бит/(Пиксели*Кадры) : 0.139
Размер потока : 643 Мбайт (86%)
Библиотека кодирования : XviD 1.2.1 (UTC 2008-12-04)

Аудио
Идентификатор : 1
Формат : MPEG Audio
Версия формата : Version 1
Профиль формата : Layer 3
Идентификатор кодека : 55
Идентификатор кодека/Подсказка : MP3
Продолжительность : 1 ч. 44 м.
Вид битрейта : Постоянный
Битрейт : 128 Кбит/сек
Каналы : 2 канала
Частота : 48,0 КГц
Метод сжатия : С потерями
Размер потока : 95,4 Мбайт (13%)
Выравнивание : Соединение по промежуткам
Продолжительность промежутка : 40 мс. (1,00 видеокадр)
Время предзагрузки промежутка : 504 мс.
Библиотека кодирования : LAME3.99r
Настройки программы : -m s -V 4 -q 2 -lowpass 17 -b 128



Скачать Тени через торрент http://s017.radikal.ru/i443/1604/5c/e9672154a7a6.png Скачать, смотреть онлайн Тени бесплантно в хорошем качестве Описание:Фильм-спектакль по одноименной пьесе М. Е. Салтыкова-Щедрина.Экранизация спектакля Ленинградского театра им. Ленсовета.60-е годы ... 10 10 1
Info! Золотая раздача, скачанное не засчитывается.
Торрент: Зарегистрирован [2016-04-04 12:47] · скачан: 7 раз
Статус: √ проверено
Размер: 746 MB
Как cкачать? Как скачать Тени через торрент | UTorrent

% Раздел Тема Автор DL S | L
Кино СССР [ 1.46 GB ] Тени | | DVDRip-AVC от AVP Studio AVP Studio Скачать
1 | 0
Кино СССР [ 1.46 GB ] Тени | | DVDRip от AVP Studio AVP Studio Скачать
1 | 0

28-11-2019 20:33  

Отключить вcю реклaмy на сайте

    Дорогой пользователь! Огромная просьба, поблагодарите релизера, оцените раздачу и оставьте свои комментарий, если Вы скачали Тени через торрент бесплатно!!
    Комментировать посты могут только пользователи прошедшие не сложную регистрацию
    Показать сообщения:    


    Тени через торрент
    Скачать бесплатно Тени
    Тени скачать торрент
    Тени смотреть онлайн
    Cкачать фильм Тени бесплатно
    Тени скачать торрент в хорошем качестве
    Тени смотреть онлайн бесплатно в хорошем качестве
    Вы не можете начинать темы
    Вы не можете отвечать на сообщения
    Вы не можете редактировать свои сообщения
    Вы не можете удалять свои сообщения
    Вы не можете голосовать в опросах
    Вы не можете прикреплять файлы к сообщениям
    Вы можете скачивать файлы