Лицензия

MVO

1

1 сезон

Лицензия

Лицензия

13

MVO

1 сезон

Deluxe Edition

pack

Рекомендуем

30

Repack

ВАЖНО

ВАЖНО

Ghostwire

RePack

jed

RePack

fifa19

RePack

RDR2

RePack

NEED FOR SPEED™ PAYBACK

RePack

Кинопоиск HD

 Острые козырьки 6 сезон

6 сезон

FAR CRY 6

RePack

Лицензия

MVO

1

1 сезон

1 сезон

Лицензия

  

Тени (Надежда Кошеверова, Николай Акимов) [1953, СССР, драма, мелодрама, DVDRip-AVC от AVP Studio]

Тени через торрент piratbit.org

Размер: 1.46 GB | Добавлен: 6 лет 5 мес. назад | Торрент скачан:16 раз
Смотреть онлайн Тени | Скачать   

04-04-2016 12:48 Тени Скачать торрент  

Тени
Страна: СССР
Производство: Ленфильм

Жанр: драма, мелодрама
Год выпуска: 1953
Продолжительность: 01:44:15

Перевод: Не требуется
Cубтитры: нет
Оригинальная аудиодорожка: русский

Режиссер: Надежда Кошеверова, Николай Акимов

В ролях:
Валентин Лебедев, Владимир Петров, Галина Короткевич, Вера Будрейко, Юрий Бубликов, Анатолий Абрамов, Александр Гюльцен, Овсей Каган, В. Фомичев, Дмитрий Бессонов, Евгений Гвоздев...
Полный список актёров

Описание:
Фильм-спектакль по одноименной пьесе М. Е. Салтыкова-Щедрина.
Экранизация спектакля Ленинградского театра им. Ленсовета.
60-е годы XIX века. Из провинции в Петербург приезжает либерально настроенный молодой чиновник Бобырев. Он надеется под покровительством своего школьного товарища Клаверова, ставшего генералом, сделать карьеру. Генерал с радостью определяет Бобырева в свою канцелярию, и уже выстраивает планы, как через красавицу Софью, жену Бобырева, будет вести успешную борьбу с противниками и влиять на сластолюбивого министра Тараканова…

Источник: DVD5 R5
Качество видео: DVDRip-AVC
Формат видео: MKV

Видео: 696->750x562 (4:3), 25 fps, H264 ~ 1809 kbps avg, 0.185 bit/pixel
Аудио: 48 kHz, Dolby Digital AC3 2.0, 192 kbps

Раздача от:
Общее
Полное имя : Teni.1953.DVDRip-AVC_[New-team]_by_AVP_Studio.mkv
Формат : Matroska
Версия формата : Version 2
Размер файла : 1,46 Гбайт
Продолжительность : 1 ч. 44 м.
Общий поток : 2003 Кбит/сек
Дата кодирования : UTC 2016-04-01 18:02:28
Программа кодирования : mkvmerge v6.1.0 ('Old Devil') built on Mar 4 2013 09:10:42
Библиотека кодирования : libebml v1.3.0 + libmatroska v1.4.0

Видео
Идентификатор : 1
Формат : AVC
Формат/Информация : Advanced Video Codec
Профиль формата : High@L4.1
Параметр CABAC формата : Да
Параметр ReFrames формата : 10 кадров
Идентификатор кодека : V_MPEG4/ISO/AVC
Продолжительность : 1 ч. 44 м.
Битрейт : 1809 Кбит/сек
Ширина : 696 пикселей
Высота : 562 пикселя
Соотношение сторон : 4:3
Режим частоты кадров : Постоянный
Частота кадров : 25,000 кадров/сек
Цветовое пространство : YUV
Субдискретизация насыщенности : 4:2:0
Битовая глубина : 8 бит
Тип развёртки : Прогрессивная
Бит/(Пиксели*Кадры) : 0.185
Размер потока : 1,29 Гбайт (88%)
Библиотека кодирования : x264 core 148 r2597 e86f3a1
Настройки программы : cabac=1 / ref=10 / deblock=1:-2:-1 / analyse=0x3:0x113 / me=umh / subme=10 / psy=1 / psy_rd=1.00:0.00 / mixed_ref=1 / me_range=32 / chroma_me=1 / trellis=2 / 8x8dct=1 / cqm=0 / deadzone=21,11 / fast_pskip=1 / chroma_qp_offset=-2 / threads=6 / lookahead_threads=1 / sliced_threads=0 / nr=0 / decimate=0 / interlaced=0 / bluray_compat=0 / constrained_intra=0 / bframes=8 / b_pyramid=2 / b_adapt=2 / b_bias=0 / direct=3 / weightb=1 / open_gop=0 / weightp=2 / keyint=250 / keyint_min=25 / scenecut=40 / intra_refresh=0 / rc=2pass / mbtree=0 / bitrate=1809 / ratetol=1.0 / qcomp=0.60 / qpmin=0 / qpmax=69 / qpstep=4 / cplxblur=20.0 / qblur=0.5 / ip_ratio=1.40 / pb_ratio=1.30 / aq=1:1.00
Default : Да
Forced : Нет

Аудио
Идентификатор : 2
Формат : AC-3
Формат/Информация : Audio Coding 3
Расширение режима : CM (complete main)
Параметр Endianness формата : Big
Идентификатор кодека : A_AC3
Продолжительность : 1 ч. 44 м.
Вид битрейта : Постоянный
Битрейт : 192 Кбит/сек
Каналы : 2 канала
Расположение каналов : Front: L R
Частота : 48,0 КГц
Частота кадров : 31,250 кадров/сек (1536 spf)
Метод сжатия : С потерями
Размер потока : 143 Мбайт (10%)
Default : Да
Forced : Нет



Скачать Тени через торрент http://s017.radikal.ru/i443/1604/5c/e9672154a7a6.png Скачать, смотреть онлайн Тени бесплантно в хорошем качестве Описание:Фильм-спектакль по одноименной пьесе М. Е. Салтыкова-Щедрина.Экранизация спектакля Ленинградского театра им. Ленсовета.60-е годы ... 10 10 2
Info! Золотая раздача, скачанное не засчитывается.
Торрент: Зарегистрирован [2016-04-04 12:48] · скачан: 16 раз
Статус: √ проверено
Размер: 1.46 GB
Как cкачать? Как скачать Тени через торрент | UTorrent

% Раздел Тема Автор DL S | L
Кино СССР [ 746 MB ] Тени | | DVDRip от AVP Studio AVP Studio Скачать
1 | 0
Кино СССР [ 1.46 GB ] Тени | | DVDRip от AVP Studio AVP Studio Скачать
1 | 0

28-11-2019 20:33  

Отключить вcю реклaмy на сайте

    Дорогой пользователь! Огромная просьба, поблагодарите релизера, оцените раздачу и оставьте свои комментарий, если Вы скачали Тени через торрент бесплатно!!
    Комментировать посты могут только пользователи прошедшие не сложную регистрацию
    Показать сообщения:    


    Тени через торрент
    Скачать бесплатно Тени
    Тени скачать торрент
    Тени смотреть онлайн
    Cкачать фильм Тени бесплатно
    Тени скачать торрент в хорошем качестве
    Тени смотреть онлайн бесплатно в хорошем качестве
    Вы не можете начинать темы
    Вы не можете отвечать на сообщения
    Вы не можете редактировать свои сообщения
    Вы не можете удалять свои сообщения
    Вы не можете голосовать в опросах
    Вы не можете прикреплять файлы к сообщениям
    Вы можете скачивать файлы