1 сезон

3 сезон

iTunes

1

iTunes

DUB Netflix

iTunes

13

1 сезон

RePack

30

Deluxe

pack

Легкие деньги

ВАЖНО

ИГРА 18+

pack

RePack

MK11

RePack

jed

RePack

fifa19

RePack

RDR2

RePack

NEED FOR SPEED™ PAYBACK

4 сезон

9 сезон

Бесстыжие 9 сезон

Все сериалы

все сериалы на PB.wtf

RePack

FAR CRY 5

Anonymous, доброй ночи, мы не успеваем до 1 числа собрать деньги на оплату серверов, помогите нам пожалуйста в это трудное время. В качестве благодарности мы отключим Вам всю рекламу на сайте (укажите свой ник в строку Ваше имя)!

×
  
Magnet ссылка

Полицейский с Рублёвки (1-8 серии из 8) (Илья Куликов) [2016 г., Драма, комедия, DVB Оригинал] piratbit.org

Полицейский с Рублёвки через торрент piratbit.org

Раздают: 1 [ 0 KB/s ]
Размер: 14.39 GB | Добавлен: 5 лет 2 мес. назад | Торрент скачан:980 раз
Скачать  

10-04-2016 18:52 Полицейский с Рублёвки Скачать торрент  

Полицейский с Рублёвки
Год выпуска: 2016
Страна: Россия
Жанр: Драма, комедия
Продолжительность: 8 x ~ 00:50:00
Перевод: Оригинал
Субтитры: Нет

Режиссер: Илья Куликов

В ролях: Александр Петров (II), Александра Бортич, Сергей Бурунов, Татьяна Бабенкова, Софья Каштанова, Роман Попов, Ростислав Гулбис, Анастасия Стежко, Лилия Лаврова, Виктория Тарасова, Анна Котова, Сергей Калашников, Сергей Штатнов, Владимир Рузанов

Описание: «Полицейский с Рублёвки» — это история о Грише Измайлове, полицейском, который призван охранять покой и порядок в самом элитном районе России, где живут невероятно богатые люди. Ему приходится расследовать дела, в которые впутываются жители Рублевки, и делает он это нередко превышая свои полномочия. Грише около 30 лет, он красив, одинок, богат, циничен, азартен и ко всему относится с изрядной долей черного юмора. Он заботится о младшей сестре-хулиганке, которую вынужден постоянно вытаскивать из неприятностей. Гриша не прикладывая усилий умеет нравиться женщинам и регулярно издевается над своим начальником Яковлевым.

Качество: DVB
Формат: TS
Видео кодек: MPEG2
Аудио кодек: MP2
Видео: MPEG-2, (768x576),4800 Кбит/с, 25.000 кадра/сек
Аудио#1: MP2, 2 ch, 192 kbps (Rus) 48.0 KHz Оригинал
Аудио#2: MP2, 2 ch, 192 kbps (Rus) 48.0 KHz Оригинал
скриншот   скриншот   скриншот  

Тип потока: Видео
Длительность: 00:50:08
Кодек: MPEG Video
Кодек/профиль: Main@Main
Кодек/ID: 2
Кодек/версия: Version 2
Размеры изображения: 768 x 576 (4:3)
Частота кадров: 25.000 fps
Размер потока: 1.68 GiB (88%)
Битрейт: 4 803 Kbps
Битрейт/макс: 15.0 Mbps
Битрейт/тип: VBR
Метод сжатия: Lossy
Стандарт: PAL
Цветовое пространство: YUV
Тип развёртки: Progressive
Колориметрия: 4:2:0
Глубина: 8 bits
:
Тип потока: Звук #1
Язык: Russian
Длительность: 00:50:08.592
Кодек: MPEG Audio
Кодек/профиль: Layer 2
Кодек/ID: 3
Частота дискретизации: 48.0 KHz
Каналов: 2 channels
Битрейт: 192 Kbps
Битрейт/тип: Constant
Размер потока: 68.9 MiB (4%)
Метод сжатия: Lossy
:
Тип потока: Звук #2
Язык: RUS
Длительность: 00:50:08.592
Кодек: MPEG Audio
Кодек/профиль: Layer 2
Кодек/ID: 3
Частота дискретизации: 48.0 KHz
Каналов: 2 channels
Битрейт: 192 Kbps
Битрейт/тип: Constant
Размер потока: 68.9 MiB (4%)
Метод сжатия: Lossy

piratbit.org



Скачать Полицейский с Рублёвки через торрент https://pic1.kartinco.top/images/10/w9hi7.jpg Скачать фильм Полицейский с Рублёвки через торрент бесплантно в хорошем качестве Описание: «Полицейский с Рублёвки» — это история о Грише Измайлове, полицейском, который призван охранять покой и порядок в самом элитном ... 9.2 10 48
Info! Золотая раздача, скачанное не засчитывается.
Торрент: Зарегистрирован [2016-04-10 18:52] · скачан: 980 раз
Статус: √ проверено
Размер: 14.39 GB
Как cкачать? Как скачать Полицейский с Рублёвки через торрент | UTorrent

% Раздел Тема Автор DL S | L
TNT serials [ 21.6 GB ] Полицейский с Рублёвки / Сезон: 1 / Серии: 1-8 из 8 [2016 HDTV 1080i] bober100 Скачать
1 | 0
TNT serials [ 2.93 GB ] Полицейский с Рублевки. Полицейская академия / Сезон: 5 / Серии: 1-8 из 8 [2019 WEB-DLRip-AVC] bober100 Скачать
2 | 1
Русское любительское видео [ 35 MB ] Полицейский с Рублёвки [2020 Amateur CamRip] Скорпион1976 Скачать
4 | 0
TNT serials [ 5.47 GB ] Полицейский с Рублёвки. Полицейская академия / Сезон: 5 / Серии: 1-8 из 8 [2019 HDTV 1080i] bober100 Скачать
3 | 0
Наши фильмы 2018-2019 [ 1.37 GB ] Полицейский с Рублевки. Новогодний беспредел 2 [2019 WEB-DLRip] bober100 Скачать
4 | 0
Наши фильмы 2018-2019 [ 1.24 GB ] Полицейский с Рублевки. Новогодний беспредел 2 [2019 WEB-DLRip-AVC] bober100 Скачать
4 | 0
TNT serials [ 9.75 GB ] Полицейский с Рублёвки / Сезон: 4 / Серии: 1-8 из 8 [2018 WEB-DL 720p] bober100 Скачать
1 | 0


Последний раз редактировалось: Бумер (2016-04-10 19:00), всего редактировалось 1 раз

28-11-2019 20:33  

Отключить всю рекламу на сайте

10-04-2016 18:58 Полицейский с Рублёвки Скачать торрент  

5000 тысяч очков золото
сериал класс!!!!!!!!!!
советую всем
мне очень понравилсяpiratbit.org



10-04-2016 19:50 Полицейский с Рублёвки Скачать торрент  

Странно, качество не очень, а вес большойpiratbit.org



11-04-2016 01:01 Полицейский с Рублёвки Скачать торрент  

Классный сериал, моментами так вообще piratbit.org



15-04-2016 16:07 Полицейский с Рублёвки Скачать торрент  

Классный фильмец, буду ждать продолжения!piratbit.org



30-04-2016 15:26 Полицейский с Рублёвки Скачать торрент  

добавить не чего сериал унылое гамно piratbit.org



23-02-2017 08:04 Полицейский с Рублёвки Скачать торрент  

Не ожидал от сериала с таким названием ничего хорошего... Но с большим удовольствием просмотрел весь и сразу! Буду ждать второй сезон - если будет.piratbit.org



13-01-2018 08:49 Полицейский с Рублёвки Скачать торрент  

без цензуры?piratbit.org



    Дорогой пользователь! Огромная просьба, поблагодарите релизера, оцените раздачу и оставьте свои комментарий, если Вы скачали Полицейский с Рублёвки через торрент бесплатно! Внесите свою лепту в развитие PiratBit!
    Комментировать посты могут только пользователи прошедшие не сложную регистрацию
    Показать сообщения:    

    Полицейский с Рублёвки через торрент
    Скачать бесплатно Полицейский с Рублёвки
    Полицейский с Рублёвки скачать торрент
    Полицейский с Рублёвки смотреть онлайн
    Cкачать фильм Полицейский с Рублёвки бесплатно
    Полицейский с Рублёвки скачать торрент в хорошем качестве
    Полицейский с Рублёвки смотреть онлайн бесплатно в хорошем качестве


    Вы не можете начинать темы
    Вы не можете отвечать на сообщения
    Вы не можете редактировать свои сообщения
    Вы не можете удалять свои сообщения
    Вы не можете голосовать в опросах
    Вы не можете прикреплять файлы к сообщениям
    Вы можете скачивать файлы