Доктор Стрэндж

Лицензия

Добыча

MVO

Дом дракона

1 сезон

Тор

Лицензия

Мэверик

Лицензия

Там, где раки поют

MVO

Властелин колец

1 сезон

Ultimate

pack

Рекомендуем

30

Repack

ВАЖНО

ВАЖНО

Ghostwire

RePack

jed

RePack

nioh2

RePack

RDR2

RePack

NEED FOR SPEED™ PAYBACK

RePack

скачать торрент

Кинопоиск HD

Острые козырьки 6 сезон

6 сезон

FAR CRY 6

RePack

скачать торрент

Лицензия

скачать торрент

MVO

1

1 сезон

скачать торрент

1 сезон

скачать торрент

Лицензия

  

Испытание верности (Иван Пырьев) [1954, СССР, мелодрама, SATRip от AVP Studio]

Испытание верности через торрент piratbit.org

Размер: 1.09 GB | Добавлен: 6 лет 5 мес. назад | Торрент скачан:27 раз
Смотреть онлайн Испытание верности | Скачать   

13-04-2016 08:29 Испытание верности Скачать торрент  

Испытание верности
Страна: СССР
Производство: Мосфильм

Жанр: мелодрама
Год выпуска: 1 декабря 1954
Продолжительность: 01:50:40

Перевод: Не требуется
Cубтитры: нет
Оригинальная аудиодорожка: русский

Режиссер: Иван Пырьев

В ролях:
Сергей Ромоданов, Марина Ладынина, Леонид Галлис, Василий Топорков, Нина Гребешкова, Александр Михайлов (II), Станислав Чекан, Олег Голубицкий, Зинаида Руднева, Николай Тимофеев, Юрий Медведев...
Полный список актёров

Описание:
О непростых человеческих судьбах, о любви и разлуке, измене и преданности, об умении простить ошибку и не бросить близкого человека в беде...

Источник: DVB
Качество видео: SATRip
Формат видео: AVI

Видео: 640x480 (4:3), 25 fps, XviD ~ 1273 kbps avg, 0.166 bit/pixel
Аудио: 48 kHz, MP3 2.0, 128 kbps

Раздача от:
Общее
Полное имя : Ispytanie.vernosti.1954.SATRip-1.09_[New-team]_by_AVP_Studio.avi
Формат : AVI
Формат/Информация : Audio Video Interleave
Размер файла : 1,09 Гбайт
Продолжительность : 1 ч. 50 м.
Общий поток : 1410 Кбит/сек
Программа кодирования : VirtualDubMod 1.5.10.3 | www.virtualdub-fr.org || (build 2550/release)
Библиотека кодирования : VirtualDubMod build 2550/release

Видео
Идентификатор : 0
Формат : MPEG-4 Visual
Профиль формата : Advanced Simple@L5
Параметр BVOP формата : 1
Параметр QPel формата : Нет
Параметр GMC формата : Без точки перехода
Параметр матрицы формата : Выборочная
Идентификатор кодека : XVID
Идентификатор кодека/Подсказка : XviD
Продолжительность : 1 ч. 50 м.
Битрейт : 1273 Кбит/сек
Ширина : 640 пикселей
Высота : 480 пикселей
Соотношение сторон : 4:3
Частота кадров : 25,000 кадров/сек
Цветовое пространство : YUV
Субдискретизация насыщенности : 4:2:0
Битовая глубина : 8 бит
Тип развёртки : Прогрессивная
Метод сжатия : С потерями
Бит/(Пиксели*Кадры) : 0.166
Размер потока : 1007 Мбайт (90%)
Библиотека кодирования : XviD 1.2.1 (UTC 2008-12-04)

Аудио
Идентификатор : 1
Формат : MPEG Audio
Версия формата : Version 1
Профиль формата : Layer 3
Идентификатор кодека : 55
Идентификатор кодека/Подсказка : MP3
Продолжительность : 1 ч. 50 м.
Вид битрейта : Постоянный
Битрейт : 128 Кбит/сек
Каналы : 2 канала
Частота : 48,0 КГц
Метод сжатия : С потерями
Размер потока : 101 Мбайт (9%)
Выравнивание : Соединение по промежуткам
Продолжительность промежутка : 40 мс. (1,00 видеокадр)
Время предзагрузки промежутка : 504 мс.
Библиотека кодирования : LAME3.99r
Настройки программы : -m s -V 4 -q 2 -lowpass 17 -b 128



Скачать Испытание верности через торрент http://s017.radikal.ru/i407/1604/a6/402e2d031ef9.png Скачать, смотреть онлайн Испытание верности бесплантно в хорошем качестве Описание:О непростых человеческих судьбах, о любви и разлуке, измене и преданности, об умении простить ошибку и не бросить близкого ... 10 10 1
Info! Золотая раздача, скачанное не засчитывается.
Торрент: Зарегистрирован [2016-04-13 08:29] · скачан: 27 раз
Статус: √ проверено
Размер: 1.09 GB
Как cкачать? Как скачать Испытание верности через торрент | UTorrent

% Раздел Тема Автор DL S | L
Кино СССР [ 1.46 GB ] Испытание верности | | SATRip-AVC от AVP Studio AVP Studio Скачать
1 | 0
Кино СССР [ 1.46 GB ] Испытание верности | | SATRip от AVP Studio AVP Studio Скачать
1 | 0

28-11-2019 20:33  

Отключить вcю реклaмy на сайте

    Дорогой пользователь! Огромная просьба, поблагодарите релизера, оцените раздачу и оставьте свои комментарий, если Вы скачали Испытание верности через торрент бесплатно!!
    Комментировать посты могут только пользователи прошедшие не сложную регистрацию
    Показать сообщения:    


    Испытание верности через торрент
    Скачать бесплатно Испытание верности
    Испытание верности скачать торрент
    Испытание верности смотреть онлайн
    Cкачать фильм Испытание верности бесплатно
    Испытание верности скачать торрент в хорошем качестве
    Испытание верности смотреть онлайн бесплатно в хорошем качестве
    Вы не можете начинать темы
    Вы не можете отвечать на сообщения
    Вы не можете редактировать свои сообщения
    Вы не можете удалять свои сообщения
    Вы не можете голосовать в опросах
    Вы не можете прикреплять файлы к сообщениям
    Вы можете скачивать файлы