Присоединяйтесь к нам в Telegram!, здесь всегда актуальный адрес сайта, оперативная поддержка и многое другое!!

>

5.9

iTunes

7.4

iTunes

9.4

1 сезон

1

7.4

2 сезон

7.2

iTunes

7.3

1 сезон

13

6.1

iTunes

8.3

GOG

30

ULTIMATE

pack

9.9

Лицензия

ВАЖНО

ИГРА 18+

pack

7.3

RePack

MK11

7.7

RePack

jed

7.8

RePack

fifa19

8.5

RePack

RDR2

RePack

NEED FOR SPEED™ PAYBACK

5 сезон

9 сезон

Бесстыжие 9 сезон

Все сериалы

все сериалы на PB.wtf

RePack

FAR CRY 5

Anonymous, добрый день, мы катастрофически не успеваем собрать деньги на оплату серверов, помогите нам пожалуйста 5,10,15р., для нас важна любая помощь . В качестве благодарности мы отключим Вам всю рекламу на сайте (укажите свой ник в строку Ваше имя)!

×
  
Magnet ссылка

Приглашение / The Invitation (Карин Кусама) [2015, ужасы, триллер, HDRip] Любительский (двухголосый) piratbit.org

Приглашение через торрент piratbit.org

Размер: 1.36 GB | Добавлен: 5 лет 7 мес. назад | Торрент скачан:384 раза
Смотреть онлайн Приглашение | Скачать    Ребята, помогите собрать деньги на оплату серверов!!!

16-04-2016 06:14 Приглашение Скачать торрент  

Приглашение / The Invitation«There is nothing to be afraid of»

  • Год выхода: 2015
  • Жанр: ужасы, триллер

  • Страна: США
  • Продолжительность: 01:40:47
  • Перевод: Любительский (двухголосый)
  • Примечание: присутствует реклама казино
  • Режиссер: Карин Кусама
  • В ролях:

    Эмаяци Коринеальди (Kira), Мишель Крусик (Gina), Марайа Делфино (Claire), Тэмми Бланчард (Eden), Линдси Бёрдж (Sadie), Даниэль Камастра (Annie), Триш Гейтс (Follower), Майк Дойл (Tommy), Михил Хаушман (David), Тоби Хасс (Dr. Joseph), Джей Ларсон (Ben), Эйден Лавкамп (Ty)


  • Уилл отправляется на вечеринку к своей бывшей жене, где в скором времени приходит к выводу, что его экс-супруга что-то скрывает. Вместе с компанией своих новых друзей она готовится к осуществлению таинственного и ужасающего плана.

  • Качество: HDRip
  • Формат: AVI
  • Видео кодек: XviD
  • Аудио кодек: AC3
  • Видео: XviD, 720x304 (2.35:1), 1736 kbps, 23,976 fps, 0,331 bpp
  • Аудио: AC3 / 2.0 / 48 kHz / 192 kbps / 16 bit
  • Релиз от:

    Код:

    General
    Complete name                            : H:\The.Invitation.2015.DVO.HDRip.1400MB_KOSHERA.avi
    Format                                   : AVI
    Format/Info                              : Audio Video Interleave
    File size                                : 1.36 GiB
    Duration                                 : 1h 40mn
    Overall bit rate                         : 1 938 Kbps
    Writing application                      : VirtualDubMod 1.5.10.2 (build 2540/release)
    Writing library                          : VirtualDubMod build 2540/release

    Video
    ID                                       : 0
    Format                                   : MPEG-4 Visual
    Format profile                           : Advanced Simple@L5
    Format settings, BVOP                    : 2
    Format settings, QPel                    : No
    Format settings, GMC                     : No warppoints
    Format settings, Matrix                  : Custom
    Codec ID                                 : XVID
    Codec ID/Hint                            : XviD
    Duration                                 : 1h 40mn
    Bit rate                                 : 1 737 Kbps
    Width                                    : 720 pixels
    Height                                   : 304 pixels
    Display aspect ratio                     : 2.35:1
    Frame rate                               : 23.976 fps
    Color space                              : YUV
    Chroma subsampling                       : 4:2:0
    Bit depth                                : 8 bits
    Scan type                                : Progressive
    Compression mode                         : Lossy
    Bits/(Pixel*Frame)                       : 0.331
    Stream size                              : 1.22 GiB (90%)
    Writing library                          : XviD 1.2.1 (UTC 2008-12-04)

    Audio
    ID                                       : 1
    Format                                   : AC-3
    Format/Info                              : Audio Coding 3
    Mode extension                           : CM (complete main)
    Codec ID                                 : 2000
    Duration                                 : 1h 40mn
    Bit rate mode                            : Constant
    Bit rate                                 : 192 Kbps
    Channel(s)                               : 2 channels
    Channel positions                        : Front: L R
    Sampling rate                            : 48.0 KHz
    Bit depth                                : 16 bits
    Compression mode                         : Lossy
    Stream size                              : 138 MiB (10%)
    Alignment                                : Split accross interleaves
    Interleave, duration                     : 42 ms (1.00 video frame)
    Interleave, preload duration             : 500 ms

    Скриншоты:


    © Оформление by -Lexx- piratbit.org



  • Скачать Приглашение через торрент https://pic1.kartinco.top/images/61/stazu.jpg Скачать, смотреть онлайн Приглашение бесплантно в хорошем качестве qw.png Уилл отправляется на вечеринку к своей бывшей жене, где в скором времени приходит к выводу, что его экс-супруга что-то скрывает. ... 9.7 10 7
    Торрент: Зарегистрирован [2016-04-16 06:14] · скачан: 384 раз
    Статус: T временная
    Размер: 1.36 GB
    Как cкачать? Как скачать Приглашение через торрент | UTorrent

    % Раздел Тема Автор DL S | L
    Порно фильмы с русским переводом [ 1.42 GB ] Приглашение / The Invitation [2015 Feature WEBRip ] Pir@tya2010 Скачать
    1 | 0
    Гонзо [ 1.5 GB ] Приглашение / The Invitation [2015 Gonzo Cum On Pussy Big Tits Threesome Cum On Tits Redhead Foursome WEB-DLRip Оригинал] Pir@tya2010 Скачать
    1 | 0

    28-11-2019 20:33  

    Отключить всю рекламу на сайте

    17-04-2016 00:05 Приглашение Скачать торрент  

    уже ремейк сняли что ли?)) Приглашение / The Invitation piratbit.org



      Дорогой пользователь! Огромная просьба, поблагодарите релизера, оцените раздачу и оставьте свои комментарий, если Вы скачали Приглашение через торрент бесплатно!
      Комментировать посты могут только пользователи прошедшие не сложную регистрацию
      Показать сообщения:    

      Приглашение через торрент
      Скачать бесплатно Приглашение
      Приглашение скачать торрент
      Приглашение смотреть онлайн
      Cкачать фильм Приглашение бесплатно
      Приглашение скачать торрент в хорошем качестве
      Приглашение смотреть онлайн бесплатно в хорошем качестве


      Вы не можете начинать темы
      Вы не можете отвечать на сообщения
      Вы не можете редактировать свои сообщения
      Вы не можете удалять свои сообщения
      Вы не можете голосовать в опросах
      Вы не можете прикреплять файлы к сообщениям
      Вы можете скачивать файлы