Доктор Стрэндж

Лицензия

Добыча

Дубляж

Дом дракона

1 сезон

Тор

Дубляж

В эфире

Дубляж

Там, где раки поют

MVO

Властелин колец

1 сезон

Deluxe

pack

Рекомендуем

30

Пиратка

ВАЖНО

ВАЖНО

Ghostwire

Пиратка

jed

RePack

nioh2

RePack

RDR2

RePack

NEED FOR SPEED™ PAYBACK

RePack

скачать торрент

Кинопоиск HD

Острые козырьки 6 сезон

6 сезон

FAR CRY 6

RePack

скачать торрент

Лицензия

скачать торрент

MVO

1

1 сезон

скачать торрент

1 сезон

скачать торрент

Лицензия

  

Никому неизвестный / Un illustre inconnu (Матьё Делапорт ) [2014, триллер, драма, BDRip 720p, Любительский одноголосый [zamez]

Никому неизвестный через торрент piratbit.org

Размер: 4.54 GB | Добавлен: 6 лет 7 мес. назад | Торрент скачан:105 раз
Смотреть онлайн | Скачать   

25-04-2016 07:41 Никому неизвестный Скачать торрент  

Никому неизвестный / Un illustre inconnu

Год выпуска: 2014
Страна: Франция, Бельгия
Жанр: триллер, драма

Продолжительность: 01:57:38
Перевод: Любительский одноголосый [zamez]
Режиссер: Матьё Делапорт
В ролях: Матьё Кассовиц (Sébastien Nicolas / Henri de Montalte), Мари-Жозе Кроз (Clémence Corneli), Эрик Каравака (Capitaine Deveaux), Hugo Le Martret (Vincent Corneli), Шиван Финнеран (Elizabeth Traven), Филипп Дюкло (Le prêtre), Оливье Рабурден (Pierre Chambard), Женевьев Мниш (Hélène Nicolas, la mère), Бернар Мюра (Henri de Montalte, озвучка), Дмитрий Сторож (Charles Beaumont), Софи Каттани (Marion, la soeur), Муния Рауи (L'adjointe de Deveaux)
Описание:
Описание:
Жизнь агента по недвижимости Себастьена Николя уныла и пуста. Когда он начинает маскироваться под своих клиентов, это просто выглядит как невинное развлечение. Но затем события принимают неожиданный и неприятный поворот.
Рейтинг:

Качество: BDRip 720p
Формат: MKV
Видео: AVC, 1280x536 (2.40:1), 5136 kbps, 24 fps, 0,312 bpp
Аудио: AC3 / 5.1 / 48 kHz / 384 kbps / 16 bit
Навигация по главам: есть
Семпл

Код:

General
Unique ID                                : 217113214763121326420752054018661414540 (0xA3567BF222BBC00AB34DD5816B07F68C)
Complete name                            : C:\Users\1\Pictures\Un.Illustre.Inconnu.2014.BD720p.Rus.mkv
Format                                   : Matroska
Format version                           : Version 4 / Version 2
File size                                : 4.54 GiB
Duration                                 : 1h 57mn
Overall bit rate                         : 5 522 Kbps
Encoded date                             : UTC 2016-04-24 16:20:10
Writing application                      : mkvmerge v8.9.0 ('Father Daughter') 32bit
Writing library                          : libebml v1.3.3 + libmatroska v1.4.4
DURATION                                 : 01:57:38.848000000
NUMBER_OF_FRAMES                         : 220589
NUMBER_OF_BYTES                          : 338824704
_STATISTICS_WRITING_APP                  : mkvmerge v8.9.0 ('Father Daughter') 32bit
_STATISTICS_WRITING_DATE_UTC             : 2016-04-24 16:20:10
_STATISTICS_TAGS                         : BPS DURATION NUMBER_OF_FRAMES NUMBER_OF_BYTES

Video
ID                                       : 1
Format                                   : AVC
Format/Info                              : Advanced Video Codec
Format profile                           : High@L4.1
Format settings, CABAC                   : Yes
Format settings, ReFrames                : 5 frames
Codec ID                                 : V_MPEG4/ISO/AVC
Duration                                 : 1h 57mn
Bit rate                                 : 5 136 Kbps
Width                                    : 1 280 pixels
Height                                   : 536 pixels
Display aspect ratio                     : 2.40:1
Frame rate                               : 24.000 fps
Color space                              : YUV
Chroma subsampling                       : 4:2:0
Bit depth                                : 8 bits
Scan type                                : Progressive
Bits/(Pixel*Frame)                       : 0.312
Stream size                              : 4.13 GiB (91%)
Writing library                          : x264 core 146 r2538 121396c
Encoding settings                        : cabac=1 / ref=5 / deblock=1:0:0 / analyse=0x3:0x113 / me=umh / subme=8 / psy=1 / psy_rd=1.00:0.00 / mixed_ref=1 / me_range=16 / chroma_me=1 / trellis=1 / 8x8dct=1 / cqm=0 / deadzone=21,11 / fast_pskip=1 / chroma_qp_offset=-2 / threads=12 / lookahead_threads=2 / sliced_threads=0 / nr=0 / decimate=1 / interlaced=0 / bluray_compat=0 / constrained_intra=0 / bframes=3 / b_pyramid=2 / b_adapt=2 / b_bias=0 / direct=3 / weightb=1 / open_gop=0 / weightp=2 / keyint=240 / keyint_min=24 / scenecut=40 / intra_refresh=0 / rc_lookahead=50 / rc=2pass / mbtree=1 / bitrate=5136 / ratetol=1.0 / qcomp=0.60 / qpmin=0 / qpmax=69 / qpstep=4 / cplxblur=20.0 / qblur=0.5 / ip_ratio=1.40 / aq=1:1.00
Language                                 : English
Default                                  : Yes
Forced                                   : No
DURATION                                 : 01:57:38.875000000
NUMBER_OF_FRAMES                         : 169413
NUMBER_OF_BYTES                          : 4531654359
_STATISTICS_WRITING_APP                  : mkvmerge v8.9.0 ('Father Daughter') 32bit
_STATISTICS_WRITING_DATE_UTC             : 2016-04-24 16:20:10
_STATISTICS_TAGS                         : BPS DURATION NUMBER_OF_FRAMES NUMBER_OF_BYTES

Audio
ID                                       : 2
Format                                   : AC-3
Format/Info                              : Audio Coding 3
Mode extension                           : CM (complete main)
Codec ID                                 : A_AC3
Duration                                 : 1h 57mn
Bit rate mode                            : Constant
Bit rate                                 : 384 Kbps
Channel(s)                               : 6 channels
Channel positions                        : Front: L C R, Side: L R, LFE
Sampling rate                            : 48.0 KHz
Bit depth                                : 16 bits
Compression mode                         : Lossy
Stream size                              : 323 MiB (7%)
Default                                  : Yes
Forced                                   : No

Menu
00:00:00.000                             : en:00:00:00.000
00:06:12.458                             : en:00:06:12.458
00:14:00.042                             : en:00:14:00.042
00:23:39.750                             : en:00:23:39.750
00:30:44.000                             : en:00:30:44.000
00:37:30.917                             : en:00:37:30.917
00:43:14.375                             : en:00:43:14.375
00:50:57.208                             : en:00:50:57.208
00:57:03.083                             : en:00:57:03.083
01:02:25.708                             : en:01:02:25.708
01:11:41.458                             : en:01:11:41.458
01:16:39.833                             : en:01:16:39.833
01:28:16.875                             : en:01:28:16.875
01:37:03.250                             : en:01:37:03.250
01:44:30.833                             : en:01:44:30.833
01:51:49.625                             : en:01:51:49.625

скриншот  



Скачать Никому неизвестный через торрент http://i79.fastpic.ru/big/2016/0425/5d/9d3f739904e1373ded8497874ed6325d.jpg Скачать, смотреть онлайн Никому неизвестный бесплантно в хорошем качестве Описание: Описание:Жизнь агента по недвижимости Себастьена Николя уныла и пуста. Когда он начинает маскироваться под своих клиентов, это ... 6.3 10 3
Торрент: Зарегистрирован [2016-04-25 07:41] · скачан: 105 раз
Статус: √ проверено
Размер: 4.54 GB
Как cкачать? Как скачать Никому неизвестный через торрент | UTorrent

% Раздел Тема Автор DL S | L
Фильмы 2014 (Звук TS, Cam, VO, DVO) [ 706 MB ] Никому неизвестный / Un illustre inconnu | | HDRip Ворон Скачать
1 | 0

28-11-2019 20:33  


Отключить вcю реклaмy на сайте, в т.ч. и в плеере онлайн просмотра!

    Дорогой пользователь! Огромная просьба, поблагодарите релизера, оцените раздачу и оставьте свои комментарий, если Вы скачали Никому неизвестный через торрент бесплатно!!
    Комментировать посты могут только пользователи прошедшие не сложную регистрацию
    Показать сообщения:    


    Никому неизвестный через торрент
    Скачать бесплатно Никому неизвестный
    Никому неизвестный скачать торрент
    Никому неизвестный смотреть онлайн
    Cкачать фильм Никому неизвестный бесплатно
    Никому неизвестный скачать торрент в хорошем качестве
    Никому неизвестный смотреть онлайн бесплатно в хорошем качестве
    Вы не можете начинать темы
    Вы не можете отвечать на сообщения
    Вы не можете редактировать свои сообщения
    Вы не можете удалять свои сообщения
    Вы не можете голосовать в опросах
    Вы не можете прикреплять файлы к сообщениям
    Вы можете скачивать файлы
    Никому неизвестный / Un illustre inconnu [2014, триллер, драма, BDRip 720p, Любительский одноголосый [zamez] смотреть онлайн, скачать торрент picoco.icu