1 сезон

3 сезон

iTunes

1

iTunes

DUB Netflix

iTunes

13

1 сезон

RePack

30

Deluxe

pack

Легкие деньги

ВАЖНО

ИГРА 18+

pack

RePack

MK11

RePack

jed

RePack

fifa19

RePack

RDR2

RePack

NEED FOR SPEED™ PAYBACK

4 сезон

9 сезон

Бесстыжие 9 сезон

Все сериалы

все сериалы на PB.wtf

RePack

FAR CRY 5

Anonymous, добрый вечер, мы не успеваем до 1 числа собрать деньги на оплату серверов, помогите нам пожалуйста в это трудное время. В качестве благодарности мы отключим Вам всю рекламу на сайте (укажите свой ник в строку Ваше имя)!

×
  
Magnet ссылка

Морпехи 3: В осаде / Jarhead 3: The Siege (Уильям Кауфман / William Kaufman) [2016, США, боевик, драма, военный, BDRip-AVC от sokol_ok] DUB Лицензия piratbit.org

Морпехи 3: В осаде через торрент piratbit.org

Раздают: 1 [ 0 KB/s ]
Размер: 2.18 GB | Добавлен: 5 лет 1 мес. назад | Торрент скачан:225 раз
Скачать  

27-04-2016 16:49 Морпехи 3: В осаде Скачать торрент  

Морпехи 3: В осаде
Jarhead 3: The Siege


Страна: США
Жанр: боевик, драма, военный
Год выпуска: 2016
Продолжительность: 01:28:59

Перевод: Профессиональный (полное дублирование) [Лицензия Blu-ray CEE]
Субтитры: русские (форсированные, полные), английские (полные, SDH)
Оригинальная аудиодорожка: английский

Режиссер: Уильям Кауфман / William Kaufman

В ролях: Чарли Вебер, Скотт Эдкинс, Том Эйнсли, Эрик Валдез, Данте Баско, Саша Джексон, Деннис Хейсбёрт, Стефен Хоган, Джо Корригалл, Адриан Ховард, Чарли де Мелу, Лил Ромео

Описание:
Отряду морских пехотинцев, чья миссия - защита посольства США в одной из ближневосточных стран, приходится отражать внезапную атаку противника. Релиз:

Автор рипа: Stalker oK

Сэмпл

Качество видео: BDRip-AVC [HDCLUB / Blu-ray Disc / 1080p]
Формат видео: MKV
Видео кодек: AVC
Аудио кодек: AC3
Видео: 2614 Кбит/сек, 1152*490 (2,35:1), в 23,976 (24000/1001) кадра/сек, AVC
Аудио #1: русский, 448 Кбит/сек, 48 КГц, 16 бит, 5.1, AC3
Аудио #2: английский, 448 Кбит/сек, 48 КГц, 16 бит, 5.1, AC3
Навигация по главам: есть

Общее
Уникальный идентификатор : 221546736981387748860682467112116954180 (0xA6AC5977BE0CD3D9AA19D021370E2444)
Полное имя : M:\Rips\Jarhead 3 The Siege\Jarhead.3.The.Siege.2016.BDRip-AVC.Dub.2.18Gb.stalkerok.new-team.mkv
Формат : Matroska
Версия формата : Version 4 / Version 2
Размер файла : 2,18 Гбайт
Продолжительность : 1 ч. 28 м.
Общий поток : 3507 Кбит/сек
Название фильма : Jarhead 3: The Siege (2016) (New-Team) (Rip by Stalker oK)
Дата кодирования : UTC 2016-04-27 16:23:44
Программа кодирования : mkvmerge v8.6.1 ('Flying') 64bit
Библиотека кодирования : libebml v1.3.3 + libmatroska v1.4.4

Видео
Идентификатор : 1
Формат : AVC
Формат/Информация : Advanced Video Codec
Профиль формата : High@L4.1
Параметр CABAC формата : Да
Параметр ReFrames формата : 14 кадров
Идентификатор кодека : V_MPEG4/ISO/AVC
Продолжительность : 1 ч. 28 м.
Битрейт : 2614 Кбит/сек
Ширина : 1152 пикселя
Высота : 490 пикселей
Соотношение сторон : 2,35:1
Режим частоты кадров : Постоянный
Частота кадров : 23,976 (24000/1001) кадра/сек
Цветовое пространство : YUV
Субдискретизация насыщенности : 4:2:0
Битовая глубина : 8 бит
Тип развёртки : Прогрессивная
Бит/(Пиксели*Кадры) : 0.193
Размер потока : 1,62 Гбайт (74%)
Заголовок : Jarhead 3: The Siege (2016) (New-Team) (Rip by Stalker oK)
Библиотека кодирования : x264 core 148 r2665kMod a01e339
Настройки программы : cabac=1 / ref=14 / deblock=1:-3:-3 / analyse=0x3:0x133 / me=umh / subme=11 / psy=1 / fade_compensate=0.00 / psy_rd=1.00:0.10 / mixed_ref=1 / me_range=48 / chroma_me=1 / trellis=2 / 8x8dct=1 / cqm=0 / deadzone=21,11 / fast_pskip=0 / chroma_qp_offset=-3 / threads=12 / lookahead_threads=3 / sliced_threads=0 / nr=0 / decimate=0 / interlaced=0 / bluray_compat=0 / constrained_intra=0 / fgo=0 / bframes=15 / b_pyramid=2 / b_adapt=2 / b_bias=0 / direct=3 / weightb=1 / open_gop=0 / weightp=2 / keyint=240 / keyint_min=23 / scenecut=40 / intra_refresh=0 / rc_lookahead=60 / rc=2pass / mbtree=0 / bitrate=2614 / ratetol=1.0 / qcomp=0.70 / qpmin=0 / qpmax=69 / qpstep=4 / cplxblur=20.0 / qblur=0.5 / vbv_maxrate=50000 / vbv_bufsize=62500 / nal_hrd=none / filler=0 / ip_ratio=1.40 / pb_ratio=1.30 / aq=3:0.90
Default : Да
Forced : Нет

Аудио #1
Идентификатор : 2
Формат : AC-3
Формат/Информация : Audio Coding 3
Расширение режима : CM (complete main)
Параметр Endianness формата : Big
Идентификатор кодека : A_AC3
Продолжительность : 1 ч. 28 м.
Вид битрейта : Постоянный
Битрейт : 448 Кбит/сек
Каналы : 6 каналов
Расположение каналов : Front: L C R, Side: L R, LFE
Частота : 48,0 КГц
Частота кадров : 31,250 кадров/сек (1536 spf)
Метод сжатия : С потерями
Размер потока : 285 Мбайт (13%)
Язык : Russian
Default : Да
Forced : Нет

Аудио #2
Идентификатор : 3
Формат : AC-3
Формат/Информация : Audio Coding 3
Расширение режима : CM (complete main)
Параметр Endianness формата : Big
Идентификатор кодека : A_AC3
Продолжительность : 1 ч. 28 м.
Вид битрейта : Постоянный
Битрейт : 448 Кбит/сек
Каналы : 6 каналов
Расположение каналов : Front: L C R, Side: L R, LFE
Частота : 48,0 КГц
Частота кадров : 31,250 кадров/сек (1536 spf)
Метод сжатия : С потерями
Размер потока : 285 Мбайт (13%)
Язык : English
Default : Нет
Forced : Нет

Текст #1
Идентификатор : 4
Формат : UTF-8
Идентификатор кодека : S_TEXT/UTF8
Идентификатор кодека/Информация : UTF-8 Plain Text
Продолжительность : 1 ч. 25 м.
Битрейт : 0 бит/сек
Count of elements : 12
Размер потока : 536 байт (0%)
Заголовок : Forced
Язык : Russian
Default : Да
Forced : Нет

Текст #2
Идентификатор : 5
Формат : UTF-8
Идентификатор кодека : S_TEXT/UTF8
Идентификатор кодека/Информация : UTF-8 Plain Text
Продолжительность : 1 ч. 28 м.
Битрейт : 88 бит/сек
Count of elements : 1058
Размер потока : 57,3 Кбайт (0%)
Заголовок : Full
Язык : Russian
Default : Нет
Forced : Нет

Текст #3
Идентификатор : 6
Формат : UTF-8
Идентификатор кодека : S_TEXT/UTF8
Идентификатор кодека/Информация : UTF-8 Plain Text
Продолжительность : 1 ч. 25 м.
Битрейт : 59 бит/сек
Count of elements : 1146
Размер потока : 36,8 Кбайт (0%)
Заголовок : Full
Язык : English
Default : Нет
Forced : Нет

Текст #4
Идентификатор : 7
Формат : UTF-8
Идентификатор кодека : S_TEXT/UTF8
Идентификатор кодека/Информация : UTF-8 Plain Text
Продолжительность : 1 ч. 25 м.
Битрейт : 63 бит/сек
Count of elements : 965
Размер потока : 39,3 Кбайт (0%)
Заголовок : SDH
Язык : English
Default : Нет
Forced : Нет

Меню
00:00:00.000 : en:Chapter 1
00:05:05.263 : en:Chapter 2
00:09:19.601 : en:Chapter 3
00:14:26.199 : en:Chapter 4
00:19:45.142 : en:Chapter 5
00:23:39.793 : en:Chapter 6
00:28:47.142 : en:Chapter 7
00:34:03.291 : en:Chapter 8
00:40:01.441 : en:Chapter 9
00:46:18.609 : en:Chapter 10
00:49:56.368 : en:Chapter 11
00:54:46.617 : en:Chapter 12
00:57:43.085 : en:Chapter 13
01:01:56.171 : en:Chapter 14
01:05:18.206 : en:Chapter 15
01:08:21.889 : en:Chapter 16
01:13:27.236 : en:Chapter 17
01:19:02.529 : en:Chapter 18
01:23:29.421 : en:Chapter 19
01:25:34.379 : en:Chapter 20
piratbit.org



Скачать Морпехи 3: В осаде через торрент http://i72.fastpic.ru/big/2015/0531/46/68ef8a2783b58e5344cc30bbd3f1b046.png Скачать фильм Морпехи 3: В осаде через торрент бесплантно в хорошем качестве Описание:Отряду морских пехотинцев, чья миссия - защита посольства США в одной из ближневосточных стран, приходится отражать внезапную ... 10 10 7
Info! Золотая раздача, скачанное не засчитывается.
Торрент: Зарегистрирован [2016-04-27 16:49] · скачан: 225 раз
Статус: √ проверено
Размер: 2.18 GB
Как cкачать? Как скачать Морпехи 3: В осаде через торрент | UTorrent

% Раздел Тема Автор DL S | L
Фильмы 2016 [DVDrip, WEB-DLRip, HDrip] (DUB, MVO) [ 1.45 GB ] Морпехи 3: В осаде / Jarhead 3: The Siege [2016 военный BDRip-AVC от sokol_ok] DUB sokol_ok Скачать
2 | 0
Фильмы 2016 [DVDrip, WEB-DLRip, HDrip] (DUB, MVO) [ 1.81 GB ] Морпехи 3: В осаде / Jarhead 3: The Siege [2016 военный BDRip-AVC от ExKinoRay DUB ] Ворон Скачать
1 | 0
Фильмы 2016 [DVDrip, WEB-DLRip, HDrip] (DUB, MVO) [ 2.18 GB ] Морпехи 3: В осаде / Jarhead 3: The Siege [2016 военный BDRip-AVC] DUB potroks Скачать
1 | 0
Фильмы 2016 [DVDrip, WEB-DLRip, HDrip] (DUB, MVO) [ 1.37 GB ] Морпехи 3: В осаде / Jarhead 3: The Siege [2016 военный HDRip DUB ] Ворон Скачать
1 | 0

28-11-2019 20:33  

Отключить всю рекламу на сайте

    Дорогой пользователь! Огромная просьба, поблагодарите релизера, оцените раздачу и оставьте свои комментарий, если Вы скачали Морпехи 3: В осаде через торрент бесплатно! Внесите свою лепту в развитие PiratBit!
    Комментировать посты могут только пользователи прошедшие не сложную регистрацию
    Показать сообщения:    

    Морпехи 3: В осаде через торрент
    Скачать бесплатно Морпехи 3: В осаде
    Морпехи 3: В осаде скачать торрент
    Морпехи 3: В осаде смотреть онлайн
    Cкачать фильм Морпехи 3: В осаде бесплатно
    Морпехи 3: В осаде скачать торрент в хорошем качестве
    Морпехи 3: В осаде смотреть онлайн бесплатно в хорошем качестве


    Вы не можете начинать темы
    Вы не можете отвечать на сообщения
    Вы не можете редактировать свои сообщения
    Вы не можете удалять свои сообщения
    Вы не можете голосовать в опросах
    Вы не можете прикреплять файлы к сообщениям
    Вы можете скачивать файлы