Доктор Стрэндж

Лицензия

Добыча

MVO

Дом дракона

1 сезон

Тор

Лицензия

Мэверик

Лицензия

Там, где раки поют

MVO

Властелин колец

1 сезон

Ultimate

pack

Рекомендуем

30

Repack

ВАЖНО

ВАЖНО

Ghostwire

RePack

jed

RePack

nioh2

RePack

RDR2

RePack

NEED FOR SPEED™ PAYBACK

RePack

скачать торрент

Кинопоиск HD

Острые козырьки 6 сезон

6 сезон

FAR CRY 6

RePack

скачать торрент

Лицензия

скачать торрент

MVO

1

1 сезон

скачать торрент

1 сезон

скачать торрент

Лицензия

  

Море студеное (Юрий Егоров) [1954, СССР, драма, история, DVDRip-AVC от AVP Studio]

Море студеное через торрент piratbit.org

Размер: 1.46 GB | Добавлен: 6 лет 5 мес. назад | Торрент скачан:37 раз
Смотреть онлайн Море студеное | Скачать   

28-04-2016 08:48 Море студеное Скачать торрент  

Море студеное
Страна: СССР
Производство: к/с им. М.Горького

Жанр: драма, история
Год выпуска: 1954
Продолжительность: 01:27:17

Перевод: Не требуется
Cубтитры: нет
Оригинальная аудиодорожка: русский

Режиссер: Юрий Егоров

В ролях:
Николай Крючков, Геннадий Юдин, Михаил Кузнецов, Эльза Леждей, Марк Бернес, Валентин Грачёв, Александра Данилова, Александр Антонов, Анатолий Кубацкий, Александр Пелевин, Георгий Черноволенко, Валентина Телегина, Елена Максимова, Всеволод Тягушев...
Полный список актёров

Описание:
XVIII век, Белое море. Рыбаки уходят на промысел в море. Во время стоянки на необитаемом острове на них нападют пираты и пускают судно на дно. Для их семей они пропали на несколько лет. Фильм основан на реальных событиях.

Источник: DVD5 R5
Качество видео: DVDRip-AVC
Формат видео: MKV

Видео: 696->762x572 (4:3), 25 fps, H264 ~ 2007 kbps avg, 0.202 bit/pixel
Аудио: 48 kHz, Dolby Digital AC3 5.1, 384 kbps

Раздача от:
Общее
Полное имя : More.studenoe.1954.DVDRip-AVC_[New-team]_by_AVP_Studio.mkv
Формат : Matroska
Версия формата : Version 2
Размер файла : 1,46 Гбайт
Продолжительность : 1 ч. 27 м.
Общий поток : 2393 Кбит/сек
Дата кодирования : UTC 2016-04-26 12:38:31
Программа кодирования : mkvmerge v6.1.0 ('Old Devil') built on Mar 4 2013 09:10:42
Библиотека кодирования : libebml v1.3.0 + libmatroska v1.4.0

Видео
Идентификатор : 1
Формат : AVC
Формат/Информация : Advanced Video Codec
Профиль формата : High@L4.1
Параметр CABAC формата : Да
Параметр ReFrames формата : 10 кадров
Идентификатор кодека : V_MPEG4/ISO/AVC
Продолжительность : 1 ч. 27 м.
Битрейт : 2007 Кбит/сек
Ширина : 696 пикселей
Высота : 572 пикселя
Соотношение сторон : 4:3
Режим частоты кадров : Постоянный
Частота кадров : 25,000 кадров/сек
Цветовое пространство : YUV
Субдискретизация насыщенности : 4:2:0
Битовая глубина : 8 бит
Тип развёртки : Прогрессивная
Бит/(Пиксели*Кадры) : 0.202
Размер потока : 1,20 Гбайт (82%)
Библиотека кодирования : x264 core 148 r2597 e86f3a1
Настройки программы : cabac=1 / ref=10 / deblock=1:-2:-1 / analyse=0x3:0x113 / me=umh / subme=10 / psy=1 / psy_rd=1.00:0.00 / mixed_ref=1 / me_range=32 / chroma_me=1 / trellis=2 / 8x8dct=1 / cqm=0 / deadzone=21,11 / fast_pskip=1 / chroma_qp_offset=-2 / threads=6 / lookahead_threads=1 / sliced_threads=0 / nr=0 / decimate=0 / interlaced=0 / bluray_compat=0 / constrained_intra=0 / bframes=8 / b_pyramid=2 / b_adapt=2 / b_bias=0 / direct=3 / weightb=1 / open_gop=0 / weightp=2 / keyint=250 / keyint_min=25 / scenecut=40 / intra_refresh=0 / rc=2pass / mbtree=0 / bitrate=2007 / ratetol=1.0 / qcomp=0.60 / qpmin=0 / qpmax=69 / qpstep=4 / cplxblur=20.0 / qblur=0.5 / ip_ratio=1.40 / pb_ratio=1.30 / aq=1:1.00
Default : Да
Forced : Нет

Аудио
Идентификатор : 2
Формат : AC-3
Формат/Информация : Audio Coding 3
Расширение режима : CM (complete main)
Параметр Endianness формата : Big
Идентификатор кодека : A_AC3
Продолжительность : 1 ч. 27 м.
Вид битрейта : Постоянный
Битрейт : 384 Кбит/сек
Каналы : 6 каналов
Расположение каналов : Front: L C R, Side: L R, LFE
Частота : 48,0 КГц
Частота кадров : 31,250 кадров/сек (1536 spf)
Метод сжатия : С потерями
Размер потока : 240 Мбайт (16%)
Default : Да
Forced : Нет



Скачать Море студеное через торрент http://s009.radikal.ru/i308/1604/1b/9bbb91d8ea38.png Скачать, смотреть онлайн Море студеное бесплантно в хорошем качестве Описание:XVIII век, Белое море. Рыбаки уходят на промысел в море. Во время стоянки на необитаемом острове на них нападют пираты и пускают ... 10 10 4
Торрент: Зарегистрирован [2016-04-28 08:48] · скачан: 37 раз
Статус: √ проверено
Размер: 1.46 GB
Как cкачать? Как скачать Море студеное через торрент | UTorrent

% Раздел Тема Автор DL S | L
Кино СССР [ 744 MB ] Море студеное | | DVDRip от AVP Studio AVP Studio Скачать
1 | 0
Кино СССР [ 1.46 GB ] Море студеное | | DVDRip от AVP Studio AVP Studio Скачать
1 | 0

28-11-2019 20:33  

Отключить вcю реклaмy на сайте

    Дорогой пользователь! Огромная просьба, поблагодарите релизера, оцените раздачу и оставьте свои комментарий, если Вы скачали Море студеное через торрент бесплатно!!
    Комментировать посты могут только пользователи прошедшие не сложную регистрацию
    Показать сообщения:    


    Море студеное через торрент
    Скачать бесплатно Море студеное
    Море студеное скачать торрент
    Море студеное смотреть онлайн
    Cкачать фильм Море студеное бесплатно
    Море студеное скачать торрент в хорошем качестве
    Море студеное смотреть онлайн бесплатно в хорошем качестве
    Вы не можете начинать темы
    Вы не можете отвечать на сообщения
    Вы не можете редактировать свои сообщения
    Вы не можете удалять свои сообщения
    Вы не можете голосовать в опросах
    Вы не можете прикреплять файлы к сообщениям
    Вы можете скачивать файлы