1 сезон

3 сезон

iTunes

1

iTunes

DUB Netflix

iTunes

13

1 сезон

RePack

30

Deluxe

pack

Легкие деньги

ВАЖНО

ИГРА 18+

pack

RePack

MK11

RePack

jed

RePack

fifa19

RePack

RDR2

RePack

NEED FOR SPEED™ PAYBACK

4 сезон

9 сезон

Бесстыжие 9 сезон

Все сериалы

все сериалы на PB.wtf

RePack

FAR CRY 5

Anonymous, добрый день, мы не успеваем до 1 числа собрать деньги на оплату серверов, помогите нам пожалуйста в это трудное время. В качестве благодарности мы отключим Вам всю рекламу на сайте (укажите свой ник в строку Ваше имя)!

×
  
Magnet ссылка

Кукла / The Boy (Уильям Брент Белл / William Brent Bell) [2016, ужасы, триллер, детектив, BDRip-AVC от potroks] Dub [iTunes] piratbit.org

Кукла через торрент piratbit.org

Размер: 1.41 GB | Добавлен: 5 лет 1 мес. назад | Торрент скачан:356 раз
Скачать  

28-04-2016 17:15 Кукла Скачать торрент  

Кукла / The Boy
«Каждый ребенок должен быть любим»
Год выпуска: 2016
Страна: США, Китай, Канада / Lakeshore Entertainment, Huayi Brothers Media...
Жанр: ужасы, триллер, детектив
Продолжительность: 01:37:47
Перевод: Дубляж [iTunes]
Субтитры: английские (Full), английские (SDH)
Навигация по главам: есть
Режиссер: Уильям Брент Белл / William Brent Bell
В ролях:

Лорен Кохэн (Greta Evans), Руперт Эванс (Malcolm), Джеймс Расселл (James), Джим Нортон (Mr. Heelshire), Диана Хардкэсл (Mrs. Heelshire), Бен Робсон (Cole), Джетт Клине (Brahms (Child)), Лили Патер (Emily Cribbs), Мэттью Уокер (Taxi Driver), Стефани Николь Лемелин (Sandy)
Описание: Благополучная английская семья нанимает для своего сына американскую няню. Приехав на новое место работы, няня обнаруживает, что её подопечный вовсе не настоящий мальчик, а кукла в человеческий рост, с которой обращаются, как с живым человеком. Но тревожные события, происходящие после того, как няня нарушает установленные строгие правила, заставляют её поверить в то, что кукла действительно может быть живой.

Качество: BDRip-AVC
Формат: MKV
Видео кодек: AVC
Аудио кодек: AC3
Видео: 1032x430 (2.40:1), 1690 kbps, 23,976 fps, 0,159 bit/pixel
Аудио: русский / AC3 / 5.1 / 48 kHz / 384 kbps / 16 bit

Код:

General
Unique ID                   : 191300409064490124340065219174473373354 (0x8FEB1E5DD1F9B57D83D14CE8EF5796AA)
Complete name               : Kukla.2016.RUS.BDRip.x264.by_potroks.mkv
Format                      : Matroska
Format version              : Version 4 / Version 2
File size                   : 1.41 GiB
Duration                    : 1h 37mn
Overall bit rate            : 2 071 Kbps
Movie name                  : The Boy (2016)
Encoded date                : UTC 2016-04-28 16:59:15
Writing application         : mkvmerge v5.9.0 ('On The Loose') built on Dec 15 2012 16:39:58
Writing library             : libebml v1.3.0 + libmatroska v1.4.0

Video
ID                          : 1
Format                      : AVC
Format/Info                 : Advanced Video Codec
Format profile              : High@L4.1
Format settings, CABAC      : Yes
Format settings, ReFrames   : 10 frames
Codec ID                    : V_MPEG4/ISO/AVC
Duration                    : 1h 37mn
Bit rate                    : 1 690 Kbps
Width                       : 1 032 pixels
Height                      : 430 pixels
Display aspect ratio        : 2.40:1
Frame rate mode             : Constant
Frame rate                  : 23.976 (24000/1001) fps
Color space                 : YUV
Chroma subsampling          : 4:2:0
Bit depth                   : 8 bits
Scan type                   : Progressive
Bits/(Pixel*Frame)          : 0.159
Stream size                 : 1.12 GiB (79%)
Title                       : potroks
Writing library             : x264 core 148 r2665M a01e339
Encoding settings           : cabac=1 / ref=10 / deblock=1:-2:-2 / analyse=0x3:0x133 / me=umh / subme=11 / psy=1 / psy_rd=1.05:0.10 / mixed_ref=1 / me_range=48 / chroma_me=1 / trellis=2 / 8x8dct=1 / cqm=0 / deadzone=21,11 / fast_pskip=0 / chroma_qp_offset=-3 / threads=9 / lookahead_threads=2 / sliced_threads=0 / nr=0 / decimate=1 / interlaced=0 / bluray_compat=0 / constrained_intra=0 / bframes=11 / b_pyramid=2 / b_adapt=2 / b_bias=0 / direct=3 / weightb=1 / open_gop=0 / weightp=2 / keyint=240 / keyint_min=23 / scenecut=40 / intra_refresh=0 / rc=2pass / mbtree=0 / bitrate=1690 / ratetol=1.0 / qcomp=0.70 / qpmin=0 / qpmax=69 / qpstep=4 / cplxblur=20.0 / qblur=0.5 / ip_ratio=1.40 / pb_ratio=1.30 / aq=1:0.80
Language                    : English
Default                     : Yes
Forced                      : No

Audio
ID                          : 2
Format                      : AC-3
Format/Info                 : Audio Coding 3
Mode extension              : CM (complete main)
Format settings, Endianness : Big
Codec ID                    : A_AC3
Duration                    : 1h 37mn
Bit rate mode               : Constant
Bit rate                    : 384 Kbps
Channel(s)                  : 6 channels
Channel positions           : Front: L C R, Side: L R, LFE
Sampling rate               : 48.0 KHz
Frame rate                  : 31.250 fps (1536 spf)
Compression mode            : Lossy
Stream size                 : 269 MiB (19%)
Title                       : Dub | DD 5.1 @ 384 kbps - iTunes
Language                    : Russian
Default                     : Yes
Forced                      : No

Text #1
ID                          : 3
Format                      : UTF-8
Codec ID                    : S_TEXT/UTF8
Codec ID/Info               : UTF-8 Plain Text
Title                       : Full
Language                    : English
Default                     : No
Forced                      : No

Text #2
ID                          : 4
Format                      : UTF-8
Codec ID                    : S_TEXT/UTF8
Codec ID/Info               : UTF-8 Plain Text
Title                       : SDH
Language                    : English
Default                     : No
Forced                      : No

Menu
00:00:00.000                : :(01)00:00:00:000
00:05:49.014                : :(02)00:05:49:014
00:09:52.258                : :(03)00:09:52:258
00:14:04.927                : :(04)00:14:04:927
00:18:13.383                : :(05)00:18:13:383
00:23:54.974                : :(06)00:23:54:974
00:27:56.465                : :(07)00:27:56:465
00:32:18.269                : :(08)00:32:18:269
00:38:13.833                : :(09)00:38:13:833
00:41:39.371                : :(10)00:41:39:371
00:45:05.827                : :(11)00:45:05:827
00:51:30.670                : :(12)00:51:30:670
00:54:20.757                : :(13)00:54:20:757
01:01:26.099                : :(14)01:01:26:099
01:05:35.889                : :(15)01:05:35:889
01:09:25.828                : :(16)01:09:25:828
01:15:54.550                : :(17)01:15:54:550
01:19:52.953                : :(18)01:19:52:953
01:27:04.676                : :(19)01:27:04:676
01:33:20.595                : :(20)01:33:20:595

piratbit.org



Скачать Кукла через торрент http://i80.fastpic.ru/big/2016/0428/34/5b464f0ecd7219d214225c6ba59b8234.png Скачать фильм Кукла через торрент бесплантно в хорошем качестве Описание: Благополучная английская семья нанимает для своего сына американскую няню. Приехав на новое место работы, няня обнаруживает, что ... 9.1 10 15
Info! Золотая раздача, скачанное не засчитывается.
Торрент: Зарегистрирован [2016-04-28 17:15] · скачан: 356 раз
Статус: √ проверено
Размер: 1.41 GB
Как cкачать? Как скачать Кукла через торрент | UTorrent

% Раздел Тема Автор DL S | L
Ultra HD (UHD: 2K, 4K, 8K) — видео сверхвысокой чёткости [ 37.07 GB ] Кукла 2: Брамс / Brahms: The Boy II [2020 UHD BDRemux 2160p] bober100 Скачать
1 | 0
Фильмы (WEB-DL 720p, 1080p) [ 3.53 GB ] Кукла 2: Брамс / Brahms: The Boy II [2020 WEB-DL 1080p] bober100 Скачать
2 | 0
Фильмы 2019-2020 [DVDrip, WEB-DLRip, HDrip] (DUB, MVO) [ 1.42 GB ] Кукла 2: Брамс / Brahms: The Boy II [2020 BDRip] - Twi7ter Скачать
8 | 0
Фильмы (Blu-ray, BD-Remux, HDDVD) [ 23.46 GB ] Кукла 2: Брамс / Brahms: The Boy II [2020 BD Remux 1080p] bober100 Скачать
1 | 0
Фильмы [HD 720p, 1080p] (Хороший звук DUB, MVO) [ 5.9 GB ] Кукла 2: Брамс / Brahms: The Boy II [2020 BDRip 1080p] bober100 Скачать
1 | 0
Фильмы 2019-2020 [DVDrip, WEB-DLRip, HDrip] (DUB, MVO) [ 809 MB ] Кукла 2: Брамс / Brahms: The Boy II [2020 HDRip] bober100 Скачать
1 | 0
Фильмы [HD 720p, 1080p] (Хороший звук DUB, MVO) [ 2.72 GB ] Кукла 2: Брамс / Brahms: The Boy II [2020 BDRip 720p] bober100 Скачать
1 | 0

28-11-2019 20:33  

Отключить всю рекламу на сайте

06-05-2016 14:07 Кукла Скачать торрент  

такой себе фильм, актриса приятная, ну и вообще поугорать:Dpiratbit.org



20-09-2016 10:39 Кукла Скачать торрент  

Чумовой фильм, если смотреть ужастики при свете дня господа, с родителями в другой комнате, конечно страшно не будет. Вы лучше закройте все окна и двери, выключите свет во всех комнатах, звук на максимум, и конечно же часов в 00-01 смотрите) добра вамpiratbit.org



    Дорогой пользователь! Огромная просьба, поблагодарите релизера, оцените раздачу и оставьте свои комментарий, если Вы скачали Кукла через торрент бесплатно! Внесите свою лепту в развитие PiratBit!
    Комментировать посты могут только пользователи прошедшие не сложную регистрацию
    Показать сообщения:    

    Кукла через торрент
    Скачать бесплатно Кукла
    Кукла скачать торрент
    Кукла смотреть онлайн
    Cкачать фильм Кукла бесплатно
    Кукла скачать торрент в хорошем качестве
    Кукла смотреть онлайн бесплатно в хорошем качестве


    Вы не можете начинать темы
    Вы не можете отвечать на сообщения
    Вы не можете редактировать свои сообщения
    Вы не можете удалять свои сообщения
    Вы не можете голосовать в опросах
    Вы не можете прикреплять файлы к сообщениям
    Вы можете скачивать файлы