Лицензия

MVO

1

1 сезон

Лицензия

Лицензия

13

MVO

1 сезон

Deluxe Edition

pack

Рекомендуем

30

Repack

ВАЖНО

ВАЖНО

Ghostwire

RePack

jed

RePack

fifa19

RePack

RDR2

RePack

NEED FOR SPEED™ PAYBACK

RePack

Кинопоиск HD

 Острые козырьки 6 сезон

6 сезон

FAR CRY 6

RePack

Лицензия

MVO

1

1 сезон

1 сезон

Лицензия

  

Гамлет (Григорий Козинцев) [1964 г., драма, DVDRip, Русский]

Гамлет через торрент piratbit.org

Размер: 2.05 GB | Добавлен: 6 лет 4 мес. назад | Торрент скачан:4 раза
Смотреть онлайн Гамлет | Скачать   

29-04-2016 23:35 Гамлет Скачать торрент  

Гамлет
Год выпуска: 1964
Страна: СССР
Жанр: драма
Продолжительность: 142 мин. / 02:22
Перевод: Не требуется Русский
Субтитры: Отсутствуют

Режиссер: Григорий Козинцев
Продюссер: Михаил Шостак
Сценарий: Григорий Козинцев, Борис Пастернак, Уильям Шекспир

Премьера в мире: 24 июня 1964

IMDB 8.40 (1747)


В ролях: Иннокентий Смоктуновский, Михаил Названов, Эльза Радзиня, Юрий Толубеев, Анастасия Вертинская, Вадим Медведев, Владимир Эренберг, Степан Олексенко, Игорь Дмитриев, Григорий Гай

Описание: 2-х серийный художественный фильм по одноименной трагедии Уильяма Шекспира «Гамлет».

Качество: DVDRip
Формат: AVI

Видео: XviD , 704x320, 25 fps, 1 596 Kbps
Аудио: AC3, 448 Kbps, 6 ch, 48 kHz
скриншот  
скриншот  
скриншот  
скриншот  
скриншот  
скриншот  
скриншот  

Общее
Полное имя Гамлет.avi
Формат : AVI
Формат/Информация : Audio Video Interleave
Профиль формата : OpenDML
Размер файла : 2,05 Гбайт
Продолжительность : 2 ч. 22 м.
Общий поток : 2057 Кбит/сек
Программа кодирования : VirtualDubMod 1.5.10.2 (build 2540/release)
Библиотека кодирования : VirtualDubMod build 2540/release

Видео
Идентификатор : 0
Формат : MPEG-4 Visual
Профиль формата : Advanced Simple@L5
Параметр BVOP формата : 1
Параметр QPel формата : Нет
Параметр GMC формата : Без точки перехода
Параметр матрицы формата : Default (MPEG)
Режим смешивания : Сжатый битовый поток
Идентификатор кодека : XVID
Идентификатор кодека/Подсказка : XviD
Продолжительность : 2 ч. 22 м.
Битрейт : 1596 Кбит/сек
Ширина : 704 пикселя
Высота : 320 пикселей
Соотношение сторон : 2,2:1
Частота кадров : 25,000 кадров/сек
Цветовое пространство : YUV
Субдискретизация насыщенности : 4:2:0
Битовая глубина : 8 бит
Тип развёртки : Прогрессивная
Метод сжатия : С потерями
Бит/(Пиксели*Кадры) : 0.283
Размер потока : 1,59 Гбайт (78%)
Библиотека кодирования : XviD 1.2.0.dev47 (UTC 2006-11-01)

Аудио
Идентификатор : 1
Формат : AC-3
Формат/Информация : Audio Coding 3
Расширение режима : CM (complete main)
Параметр Endianness формата : Big
Идентификатор кодека : 2000
Продолжительность : 2 ч. 22 м.
Вид битрейта : Постоянный
Битрейт : 448 Кбит/сек
Каналы : 6 каналов
Расположение каналов : Front: L C R, Side: L R, LFE
Частота : 48,0 КГц
Частота кадров : 31,250 кадров/сек (1536 spf)
Метод сжатия : С потерями
Размер потока : 457 Мбайт (22%)
Выравнивание : Разделение по промежуткам
Продолжительность промежутка : 40 мс. (1,00 видеокадр)
Время предзагрузки промежутка : 500 мс.

Гамлет скачать торрент




Скачать Гамлет через торрент http://i80.fastpic.ru/big/2016/0430/35/7292d9e82bc72c1addccb5a50d5bcc35.jpg Скачать, смотреть онлайн Гамлет бесплантно в хорошем качестве Описание: 2-х серийный художественный фильм по одноименной трагедии Уильяма Шекспира ... 10 10 1
Торрент: Зарегистрирован [2016-04-29 23:35] · скачан: 4 раз
Статус: √ проверено
Размер: 2.05 GB
Как cкачать? Как скачать Гамлет через торрент | UTorrent

% Раздел Тема Автор DL S | L
Кино СССР [ 2.17 GB ] Гамлет | | DVDRip-AVC smaster Скачать
1 | 0



Последний раз редактировалось: Sergo26 (2016-04-30 08:04), всего редактировалось 4 раз(а)

28-11-2019 20:33  

Отключить вcю реклaмy на сайте

    Дорогой пользователь! Огромная просьба, поблагодарите релизера, оцените раздачу и оставьте свои комментарий, если Вы скачали Гамлет через торрент бесплатно!!
    Комментировать посты могут только пользователи прошедшие не сложную регистрацию
    Показать сообщения:    


    Гамлет через торрент
    Скачать бесплатно Гамлет
    Гамлет скачать торрент
    Гамлет смотреть онлайн
    Cкачать фильм Гамлет бесплатно
    Гамлет скачать торрент в хорошем качестве
    Гамлет смотреть онлайн бесплатно в хорошем качестве
    Вы не можете начинать темы
    Вы не можете отвечать на сообщения
    Вы не можете редактировать свои сообщения
    Вы не можете удалять свои сообщения
    Вы не можете голосовать в опросах
    Вы не можете прикреплять файлы к сообщениям
    Вы можете скачивать файлы