Доктор Стрэндж

Лицензия

Добыча

MVO

Дом дракона

1 сезон

Тор

Лицензия

Мэверик

Лицензия

Там, где раки поют

MVO

Властелин колец

1 сезон

Ultimate

pack

Рекомендуем

30

Repack

ВАЖНО

ВАЖНО

Ghostwire

RePack

jed

RePack

nioh2

RePack

RDR2

RePack

NEED FOR SPEED™ PAYBACK

RePack

скачать торрент

Кинопоиск HD

Острые козырьки 6 сезон

6 сезон

FAR CRY 6

RePack

скачать торрент

Лицензия

скачать торрент

MVO

1

1 сезон

скачать торрент

1 сезон

скачать торрент

Лицензия

  

Неоконченная повесть (Фридрих Эрмлер) [1955, СССР, драма, мелодрама, SATRip от AVP Studio]

Неоконченная повесть через торрент piratbit.org

Размер: 1.09 GB | Добавлен: 6 лет 4 мес. назад | Торрент скачан:16 раз
Смотреть онлайн Неоконченная повесть | Скачать   

17-05-2016 08:30 Неоконченная повесть Скачать торрент  

Неоконченная повесть
Страна: СССР
Производство: Ленфильм

Жанр: драма, мелодрама
Год выпуска: 17 октября 1955
Продолжительность: 01:33:21

Перевод: Не требуется
Cубтитры: нет
Оригинальная аудиодорожка: русский

Режиссер: Фридрих Эрмлер

В ролях:
Элина Быстрицкая, Сергей Бондарчук, Софья Гиацинтова, Евгений Самойлов, Евгений Лебедев, Александр Лариков, Герман Хованов, Юрий Толубеев, Эраст Гарин...
Полный список актёров

Описание:
Талантливого кораблестроителя Ершова настигла беда - паралич ног приковал его к постели. Но Ершов не сдается, продолжает активно жить и работать. И каждое утро с нетерпением ждет прихода участкового врача Елизаветы Максимовны. Он любит эту женщину...

Источник: DVB
Качество видео: SATRip
Формат видео: AVI

Видео: 688x512 (4:3), 25 fps, XviD ~ 1467 kbps avg, 0.167 bit/pixel
Аудио: 48 kHz, Dolby Digital AC3 2.0, 192 kbps

Раздача от:
Общее
Полное имя : Neokonchennaya.povest.1955.SATRip_[New-team]_by_AVP_Studio.avi
Формат : AVI
Формат/Информация : Audio Video Interleave
Размер файла : 1,09 Гбайт
Продолжительность : 1 ч. 33 м.
Общий поток : 1668 Кбит/сек
Программа кодирования : VirtualDubMod 1.5.10.3 | www.virtualdub-fr.org || (build 2550/release)
Библиотека кодирования : VirtualDubMod build 2550/release

Видео
Идентификатор : 0
Формат : MPEG-4 Visual
Профиль формата : Advanced Simple@L5
Параметр BVOP формата : 1
Параметр QPel формата : Нет
Параметр GMC формата : Без точки перехода
Параметр матрицы формата : Выборочная
Идентификатор кодека : XVID
Идентификатор кодека/Подсказка : XviD
Продолжительность : 1 ч. 33 м.
Битрейт : 1467 Кбит/сек
Ширина : 688 пикселей
Высота : 512 пикселей
Соотношение сторон : 4:3
Частота кадров : 25,000 кадров/сек
Цветовое пространство : YUV
Субдискретизация насыщенности : 4:2:0
Битовая глубина : 8 бит
Тип развёртки : Прогрессивная
Метод сжатия : С потерями
Бит/(Пиксели*Кадры) : 0.167
Размер потока : 979 Мбайт (88%)
Библиотека кодирования : XviD 1.2.1 (UTC 2008-12-04)

Аудио
Идентификатор : 1
Формат : AC-3
Формат/Информация : Audio Coding 3
Расширение режима : CM (complete main)
Параметр Endianness формата : Big
Идентификатор кодека : 2000
Продолжительность : 1 ч. 33 м.
Вид битрейта : Постоянный
Битрейт : 192 Кбит/сек
Каналы : 2 канала
Расположение каналов : Front: L R
Частота : 48,0 КГц
Частота кадров : 31,250 кадров/сек (1536 spf)
Метод сжатия : С потерями
Размер потока : 128 Мбайт (12%)
Выравнивание : Разделение по промежуткам
Продолжительность промежутка : 40 мс. (1,00 видеокадр)
Время предзагрузки промежутка : 500 мс



Скачать Неоконченная повесть через торрент http://s014.radikal.ru/i328/1605/a3/322207a90126.png Скачать, смотреть онлайн Неоконченная повесть бесплантно в хорошем качестве Описание:Талантливого кораблестроителя Ершова настигла беда - паралич ног приковал его к постели. Но Ершов не сдается, продолжает активно ... 10 10 1
Info! Золотая раздача, скачанное не засчитывается.
Торрент: Зарегистрирован [2016-05-17 08:30] · скачан: 16 раз
Статус: √ проверено
Размер: 1.09 GB
Как cкачать? Как скачать Неоконченная повесть через торрент | UTorrent

% Раздел Тема Автор DL S | L
Кино СССР [ 1.09 GB ] Неоконченная повесть | | SATRip-AVC от AVP Studio AVP Studio Скачать
1 | 0
Кино СССР [ 744 MB ] Неоконченная повесть | | SATRip от AVP Studio AVP Studio Скачать
1 | 0

28-11-2019 20:33  

Отключить вcю реклaмy на сайте

    Дорогой пользователь! Огромная просьба, поблагодарите релизера, оцените раздачу и оставьте свои комментарий, если Вы скачали Неоконченная повесть через торрент бесплатно!!
    Комментировать посты могут только пользователи прошедшие не сложную регистрацию
    Показать сообщения:    


    Неоконченная повесть через торрент
    Скачать бесплатно Неоконченная повесть
    Неоконченная повесть скачать торрент
    Неоконченная повесть смотреть онлайн
    Cкачать фильм Неоконченная повесть бесплатно
    Неоконченная повесть скачать торрент в хорошем качестве
    Неоконченная повесть смотреть онлайн бесплатно в хорошем качестве
    Вы не можете начинать темы
    Вы не можете отвечать на сообщения
    Вы не можете редактировать свои сообщения
    Вы не можете удалять свои сообщения
    Вы не можете голосовать в опросах
    Вы не можете прикреплять файлы к сообщениям
    Вы можете скачивать файлы