Доктор Стрэндж

Лицензия

Добыча

Дубляж

Уэнсдэй

1 сезон

Тор

Дубляж

В эфире

Дубляж

Там, где раки поют

MVO

Властелин колец

1 сезон

Deluxe

pack

Рекомендуем

30

Пиратка

ВАЖНО

ВАЖНО

Ghostwire

Пиратка

jed

RePack

nioh2

RePack

RDR2

RePack

NEED FOR SPEED™ PAYBACK

RePack

скачать торрент

Кинопоиск HD

Острые козырьки 6 сезон

6 сезон

FAR CRY 6

RePack

скачать торрент

Лицензия

скачать торрент

MVO

1

1 сезон

скачать торрент

1 сезон

скачать торрент

Лицензия

  

Война / Krigen (Тобиас Линдхольм) [2015, драма, военный, BDRip 1080p ] 2 x VO

Война через торрент piratbit.org

Размер: 16.89 GB | Добавлен: 6 лет 6 мес. назад | Торрент скачан:9 раз
Смотреть онлайн | Скачать   

17-05-2016 09:36 Война Скачать торрент  

Название: Война
Оригинальное название: Krigen
Год выпуска: 2015
Страна: Дания
Жанр: драма, военный
Продолжительность: 01:55:09
Перевод: Профессиональный одноголосый, любительский одноголосый

Режиссёр: Тобиас Линдхольм

В ролях: Йохан Филип Асбек, Тува Новотны, Сёрен Маллинг, Дар Салим, Шарлотте Мунк

Описание: Командир роты Клаус М. Педерсен и его люди размещены в афганской провинции. А в Дании жена Клауса Мария пытается вести обычную жизнь, когда её муж на войне, а троим детям не хватает отца. Во время очередной миссии солдаты попадают в тяжёлую перестрелку, и, чтобы спасти своих людей, Клаус принимает решение, которое имеет серьёзные последствия для него и для его семьи...



Качество: BDRip 1080p Сравнение с исходником
Формат: MKV
Видео: MPEG-4 AVC, 19.6 Mбит/с, 1920x1040, 24 кадр/с
Аудио 1: русский, AC3, 192 kbps, 2 ch, 48 kHz [профессиональный одноголосый, Павел Морозов по субтитрам аdеlstеin-s]
Аудио 2: русский, AC3, 384 kbps, 6 ch, 48 kHz [любительский одноголосый, LetEatBee по субтитрам аdеlstеin-s]
Аудио 3: датский, DTS, 768 kbps, 6 ch, 48 kHz [оригинал]
Субтитры 1: русские (аdеlstеin-s)
Субтитры 2: английские (хардсабы)
Общее
Уникальный идентификатор : 246837496312260154663875790173757732576 (0xB9B32C2C88B71082B9FE055490D776E0)
Полное имя : D:\Video\Война.2015.BDRip.1080p.mkv
Формат : Matroska
Версия формата : Version 4 / Version 2
Размер файла : 16,9 Гбайт
Продолжительность : 1 ч. 55 м.
Общий поток : 21,0 Мбит/сек
Дата кодирования : UTC 2016-05-16 02:47:24
Программа кодирования : mkvmerge v8.2.0 ('World of Adventure') 64bit
Библиотека кодирования : libebml v1.3.1 + libmatroska v1.4.2

Видео
Идентификатор : 1
Формат : AVC
Формат/Информация : Advanced Video Codec
Профиль формата : High@L4.1
Параметр CABAC формата : Да
Параметр ReFrames формата : 4 кадра
Идентификатор кодека : V_MPEG4/ISO/AVC
Продолжительность : 1 ч. 55 м.
Битрейт : 19,6 Мбит/сек
Ширина : 1920 пикселей
Высота : 1040 пикселей
Соотношение сторон : 1,85:1
Режим частоты кадров : Постоянный
Частота кадров : 24,000 кадра/сек
Цветовое пространство : YUV
Субдискретизация насыщенности : 4:2:0
Битовая глубина : 8 бит
Тип развёртки : Прогрессивная
Бит/(Пиксели*Кадры) : 0.410
Размер потока : 15,8 Гбайт (94%)
Библиотека кодирования : x264 core 146 r2538 121396c
Настройки программы : cabac=1 / ref=4 / deblock=1:-1:-1 / analyse=0x3:0x113 / me=umh / subme=10 / psy=1 / psy_rd=1.00:0.15 / mixed_ref=1 / me_range=32 / chroma_me=1 / trellis=2 / 8x8dct=1 / cqm=0 / deadzone=21,11 / fast_pskip=1 / chroma_qp_offset=-3 / threads=6 / lookahead_threads=1 / sliced_threads=0 / nr=0 / decimate=1 / interlaced=0 / bluray_compat=0 / constrained_intra=0 / bframes=16 / b_pyramid=2 / b_adapt=2 / b_bias=0 / direct=1 / weightb=1 / open_gop=0 / weightp=2 / keyint=230 / keyint_min=23 / scenecut=40 / intra_refresh=0 / rc_lookahead=40 / rc=crf / mbtree=0 / crf=19.1 / qcomp=0.60 / qpmin=0 / qpmax=69 / qpstep=4 / vbv_maxrate=40000 / vbv_bufsize=50000 / crf_max=0.0 / nal_hrd=none / filler=0 / ip_ratio=1.40 / pb_ratio=1.30 / aq=1:1.00
Язык : Danish
Default : Да
Forced : Нет

Аудио #1
Идентификатор : 2
Формат : AC-3
Формат/Информация : Audio Coding 3
Расширение режима : CM (complete main)
Параметр Endianness формата : Big
Идентификатор кодека : A_AC3
Продолжительность : 1 ч. 55 м.
Вид битрейта : Постоянный
Битрейт : 192 Кбит/сек
Каналы : 2 канала
Расположение каналов : Front: L R
Частота : 48,0 КГц
Частота кадров : 31,250 кадров/сек (1536 spf)
Метод сжатия : С потерями
Размер потока : 158 Мбайт (1%)
Заголовок : профессиональный одноголосый, Павел Морозов по субтитрам аdеlstеin-s
Язык : Russian
Default : Да
Forced : Нет

Аудио #2
Идентификатор : 3
Формат : AC-3
Формат/Информация : Audio Coding 3
Расширение режима : CM (complete main)
Параметр Endianness формата : Big
Идентификатор кодека : A_AC3
Продолжительность : 1 ч. 55 м.
Вид битрейта : Постоянный
Битрейт : 384 Кбит/сек
Каналы : 6 каналов
Расположение каналов : Front: L C R, Side: L R, LFE
Частота : 48,0 КГц
Частота кадров : 31,250 кадров/сек (1536 spf)
Метод сжатия : С потерями
Размер потока : 316 Мбайт (2%)
Заголовок : любительский одноголосый, LetEatBee по субтитрам аdеlstеin-s
Язык : Russian
Default : Нет
Forced : Нет

Аудио #3
Идентификатор : 4
Формат : DTS
Формат/Информация : Digital Theater Systems
Режим : 16
Параметр Endianness формата : Big
Идентификатор кодека : A_DTS
Продолжительность : 1 ч. 55 м.
Вид битрейта : Постоянный
Битрейт : 768 Кбит/сек
Каналы : 6 каналов
Расположение каналов : Front: L C R, Side: L R, LFE
Частота : 48,0 КГц
Частота кадров : 93,750 кадра/сек (512 spf)
Битовая глубина : 24 бит
Метод сжатия : С потерями
Размер потока : 633 Мбайт (4%)
Заголовок : Original
Язык : Danish
Default : Нет
Forced : Нет

Текст
Идентификатор : 5
Формат : UTF-8
Идентификатор кодека : S_TEXT/UTF8
Идентификатор кодека/Информация : UTF-8 Plain Text
Продолжительность : 1 ч. 48 м.
Битрейт : 88 бит/сек
Count of elements : 1075
Размер потока : 70,1 Кбайт (0%)
Заголовок : русский (аdеlstеin-s)
Язык : Russian
Default : Нет
Forced : Нет



Скачать Война через торрент http://s018.radikal.ru/i525/1605/ca/3cfaf531f064.jpg Скачать, смотреть онлайн Война бесплантно в хорошем качестве Описание: Командир роты Клаус М. Педерсен и его люди размещены в афганской провинции. А в Дании жена Клауса Мария пытается вести обычную ... 5 10 1
Info! Золотая раздача, скачанное не засчитывается.
Торрент: Зарегистрирован [2016-05-17 09:36] · скачан: 9 раз
Статус: √ проверено
Размер: 16.89 GB
Как cкачать? Как скачать Война через торрент | UTorrent

% Раздел Тема Автор DL S | L
Фильмы [HD 720p, 1080p] (Звук Cam, VO, DVO) [ 5.74 GB ] Война / Krigen | | 720p msltel Скачать
1 | 0

28-11-2019 20:33  


Отключить вcю реклaмy на сайте, в т.ч. и в плеере онлайн просмотра!

17-05-2016 11:43 Война Скачать торрент  

блин подумал что Стетхема против Джета Лии



    Дорогой пользователь! Огромная просьба, поблагодарите релизера, оцените раздачу и оставьте свои комментарий, если Вы скачали Война через торрент бесплатно!!
    Комментировать посты могут только пользователи прошедшие не сложную регистрацию
    Показать сообщения:    


    Война через торрент
    Скачать бесплатно Война
    Война скачать торрент
    Война смотреть онлайн
    Cкачать фильм Война бесплатно
    Война скачать торрент в хорошем качестве
    Война смотреть онлайн бесплатно в хорошем качестве
    Вы не можете начинать темы
    Вы не можете отвечать на сообщения
    Вы не можете редактировать свои сообщения
    Вы не можете удалять свои сообщения
    Вы не можете голосовать в опросах
    Вы не можете прикреплять файлы к сообщениям
    Вы можете скачивать файлы
    Война / Krigen [2015, драма, военный, BDRip 1080p ] 2 x VO смотреть онлайн, скачать торрент picoco.icu